<?xml version="1.0" standalone="no"?>
<!DOCTYPE svg PUBLIC "-//W3C//DTD SVG 1.1//EN" "http://www.w3.org/Graphics/SVG/1.1/DTD/svg11.dtd" >
<svg xmlns="http://www.w3.org/2000/svg">
<metadata>Generated by IcoMoon</metadata>
<defs>
<font id="steinfurt" horiz-adv-x="1024">
<font-face units-per-em="1024" ascent="960" descent="-64" />
<missing-glyph horiz-adv-x="1024" />
<glyph unicode="&#x20;" horiz-adv-x="512" d="" />
<glyph unicode="&#xe900;" glyph-name="breadcrumb" d="M969.6 572.8l-428.8 377.6c-12.8 12.8-35.2 12.8-51.2 0l-428.8-377.6c-9.6-6.4-12.8-16-12.8-28.8v-569.6c0-22.4 16-38.4 38.4-38.4h857.6c22.4 0 38.4 16 38.4 38.4v569.6c0 12.8-3.2 22.4-12.8 28.8zM633.6 12.8h-192v252.8h192v-252.8zM905.6 12.8h-192v288c0 19.2-19.2 35.2-41.6 35.2h-275.2c-22.4 0-41.6-16-41.6-35.2v-288h-230.4v515.2l390.4 345.6 390.4-345.6v-515.2z" />
<glyph unicode="&#xe901;" glyph-name="list-check" d="M409.6 70.4c-38.4-38.4-99.2-38.4-137.6 0l-246.4 249.6c-38.4 38.4-38.4 99.2 0 137.6s99.2 38.4 137.6 0l176-179.2 518.4 524.8c38.4 38.4 99.2 38.4 137.6 0s38.4-99.2 0-137.6l-585.6-595.2z" />
<glyph unicode="&#xe902;" glyph-name="link" d="M1011.2 460.8l-307.2 294.4c-19.2 19.2-48 19.2-67.2 0s-19.2-48 0-64l224-217.6h-812.8c-25.6 0-48-19.2-48-44.8s22.4-44.8 48-44.8h812.8l-224-217.6c-19.2-19.2-19.2-48 0-64 9.6-9.6 22.4-12.8 35.2-12.8s25.6 3.2 35.2 12.8l304 294.4c16 16 16 44.8 0 64z" />
<glyph unicode="&#xe903;" glyph-name="arrow-down" d="M16 675.2c-19.2 19.2-19.2 48-6.4 70.4l6.4 6.4c22.4 22.4 54.4 19.2 76.8 0l419.2-419.2 419.2 419.2c19.2 19.2 48 19.2 70.4 6.4l6.4-6.4c22.4-22.4 19.2-54.4 0-76.8l-457.6-457.6c-12.8-12.8-35.2-19.2-51.2-12.8-6.4 0-12.8 3.2-16 6.4l-6.4 6.4-460.8 457.6z" />
<glyph unicode="&#xe904;" glyph-name="kundenlogin" d="M745.6-64h-457.6c-131.2 0-240 108.8-240 240 0 22.4 3.2 48 9.6 70.4 54.4 176 211.2 291.2 396.8 291.2h124.8c182.4 0 342.4-118.4 396.8-291.2 38.4-128-32-259.2-160-300.8-25.6-6.4-48-9.6-70.4-9.6zM454.4 476.8c-156.8 0-291.2-99.2-339.2-249.6-6.4-16-6.4-35.2-6.4-51.2 0-99.2 80-179.2 179.2-179.2h457.6c19.2 0 35.2 3.2 51.2 6.4 96 28.8 147.2 128 118.4 224-44.8 150.4-182.4 249.6-339.2 249.6h-121.6zM515.2 598.4c-99.2 0-179.2 80-179.2 179.2s80 182.4 179.2 182.4c99.2 0 179.2-80 179.2-179.2s-80-182.4-179.2-182.4zM515.2 899.2c-67.2 0-121.6-54.4-121.6-121.6s54.4-121.6 121.6-121.6 121.6 54.4 121.6 121.6-54.4 121.6-121.6 121.6z" />
<glyph unicode="&#xe905;" glyph-name="minus" d="M1024 435.2h-1024v48h1024v-48z" />
<glyph unicode="&#xe906;" glyph-name="plus" d="M569.6 508.8h454.4v-108.8h-454.4v-467.2h-124.8v467.2h-444.8v108.8h444.8v451.2h124.8v-451.2z" />
<glyph unicode="&#xe907;" glyph-name="arrow-up" d="M16 294.4c-19.2-19.2-19.2-48-6.4-70.4l6.4-6.4c22.4-22.4 54.4-19.2 76.8 0l419.2 419.2 419.2-419.2c19.2-19.2 48-19.2 70.4-6.4l6.4 6.4c22.4 22.4 19.2 54.4 0 76.8l-457.6 457.6c-12.8 12.8-35.2 19.2-51.2 12.8-6.4 0-12.8-3.2-16-6.4l-6.4-6.4-460.8-457.6z" />
<glyph unicode="&#xe908;" glyph-name="aussenbecken" d="M224 627.2c-57.6 0-105.6 48-105.6 108.8 0 57.6 48 108.8 108.8 108.8 57.6 0 105.6-48 105.6-108.8s-48-108.8-108.8-108.8zM224 809.6c-41.6 0-73.6-32-73.6-73.6s32-76.8 73.6-76.8 76.8 35.2 76.8 76.8-35.2 73.6-76.8 73.6zM208 960h32v-83.2h-32v83.2zM51.501 883.923l22.627 22.627 58.831-58.831-22.627-22.627-58.831 58.831zM0 752h83.2v-32h-83.2v32zM52.778 585.85l58.831 58.831 22.627-22.627-58.831-58.831-22.627 22.627zM208 595.2h32v-83.2h-32v83.2zM314.644 623.327l22.627 22.627 58.831-58.831-22.627-22.627-58.831 58.831zM364.8 752h83.2v-32h-83.2v32zM313.37 848.993l58.831 58.831 22.627-22.627-58.831-58.831-22.627 22.627zM982.4 80c-57.6 0-92.8 28.8-108.8 48-102.4-76.8-211.2-19.2-243.2 3.2-41.6-35.2-83.2-51.2-128-48-51.2 3.2-89.6 32-108.8 44.8-112-89.6-211.2-25.6-246.4 0-35.2-28.8-80-44.8-131.2-48-9.6 0-16 6.4-16 16s6.4 16 16 16c48 0 89.6 16 118.4 48 6.4 6.4 16 6.4 22.4 0 3.2-3.2 108.8-105.6 224 0 3.2 3.2 6.4 3.2 12.8 3.2 3.2 0 9.6-3.2 9.6-6.4 0 0 25.6-25.6 64-38.4 51.2-16 99.2-3.2 150.4 41.6 6.4 6.4 16 6.4 19.2 0 6.4-3.2 121.6-92.8 227.2 0 3.2 3.2 9.6 3.2 12.8 3.2s9.6-3.2 12.8-6.4c0-3.2 35.2-54.4 115.2-44.8 9.6 0 16-6.4 19.2-12.8 0-9.6-6.4-16-12.8-19.2-12.8 0-19.2 0-28.8 0zM982.4-64c-57.6 0-92.8 28.8-108.8 48-102.4-76.8-211.2-19.2-243.2 3.2-41.6-35.2-83.2-51.2-128-48-51.2 3.2-89.6 32-108.8 44.8-112-89.6-211.2-25.6-246.4 0-35.2-28.8-80-44.8-131.2-48-9.6 0-16 9.6-16 16 0 9.6 6.4 16 16 16 48 0 89.6 16 118.4 48 6.4 6.4 16 6.4 22.4 0 3.2-3.2 108.8-105.6 224 0 3.2 3.2 6.4 3.2 12.8 3.2 3.2 0 9.6-3.2 9.6-6.4 0 0 25.6-25.6 64-38.4 51.2-16 99.2-3.2 150.4 41.6 6.4 6.4 16 6.4 19.2 0 6.4-3.2 121.6-92.8 227.2 0 3.2 3.2 9.6 3.2 12.8 3.2s9.6-3.2 12.8-6.4c0-3.2 35.2-54.4 115.2-44.8 9.6 0 16-6.4 19.2-12.8 0-9.6-6.4-16-12.8-19.2-12.8 0-19.2 0-28.8 0zM627.2 537.6c9.6 0 16 6.4 19.2 12.8 0 9.6-6.4 16-12.8 19.2-48 6.4-83.2-3.2-108.8-22.4-19.2-16-28.8-41.6-28.8-70.4v-300.8c0-9.6 6.4-16 16-16s16 6.4 16 16v300.8c0 22.4 6.4 38.4 16 48 16 12.8 44.8 16 83.2 12.8zM864 566.4c-48 6.4-83.2-3.2-108.8-22.4-19.2-16-28.8-41.6-28.8-70.4v-48h-140.8c-9.6 0-16-6.4-16-16s6.4-16 16-16h140.8v-86.4h-140.8c-9.6 0-16-6.4-16-16s6.4-16 16-16h140.8v-102.4c0-9.6 6.4-16 16-16s16 6.4 16 16v300.8c0 22.4 6.4 38.4 16 48 16 12.8 44.8 19.2 83.2 16 9.6 0 16 6.4 19.2 12.8 3.2 9.6-3.2 16-12.8 16z" />
<glyph unicode="&#xe909;" glyph-name="schwimmhalle" d="M1008 275.2c-76.8 0-115.2 32-153.6 64-9.6 6.4-19.2 16-28.8 22.4 12.8 9.6 22.4 25.6 25.6 41.6 6.4 22.4 0 44.8-16 64s-35.2 28.8-60.8 28.8h-38.4c0 0-3.2 0-3.2 3.2-6.4 12.8-12.8 25.6-19.2 38.4 48-35.2 115.2-28.8 156.8 12.8s44.8 108.8 9.6 153.6-99.2 60.8-150.4 32c-51.2-28.8-76.8-89.6-57.6-144 0 0 0 0 0 0l-150.4 156.8c-28.8 32-76.8 41.6-115.2 22.4l-188.8-76.8c-25.6-12.8-44.8-38.4-44.8-70.4 0-25.6 12.8-48 35.2-64 22.4-12.8 48-16 73.6-6.4l153.6 67.2 80-83.2-368-160c-38.4 22.4-80 35.2-124.8 35.2-9.6 0-16-6.4-16-16s6.4-16 16-16c76.8 0 115.2-32 153.6-64 41.6-35.2 86.4-70.4 176-70.4s134.4 35.2 176 70.4c38.4 32 76.8 64 153.6 64s115.2-32 153.6-64c41.6-35.2 86.4-70.4 176-70.4 9.6 0 16 6.4 16 16-3.2 6.4-9.6 12.8-19.2 12.8v0zM784 716.8c48 0 86.4-38.4 86.4-83.2 0-48-38.4-83.2-86.4-83.2s-86.4 38.4-86.4 83.2c3.2 44.8 41.6 83.2 86.4 83.2zM502.4 339.2c-38.4-32-76.8-64-153.6-64s-115.2 32-153.6 64c-6.4 6.4-12.8 9.6-19.2 16l374.4 163.2c6.4 3.2 9.6 6.4 9.6 12.8s0 9.6-3.2 16l-96 102.4c-9.6 9.6-25.6 12.8-38.4 6.4l-153.6-67.2c-22.4-9.6-48 0-57.6 22.4-3.2 6.4-3.2 9.6-3.2 16 0 16 9.6 32 25.6 38.4l188.8 80c25.6 12.8 57.6 6.4 76.8-16l150.4-156.8c25.6-25.6 44.8-54.4 57.6-86.4 6.4-12.8 19.2-22.4 35.2-22.4h38.4c12.8 0 25.6-6.4 32-16 9.6-9.6 12.8-22.4 9.6-35.2s-12.8-22.4-22.4-28.8c-35.2 19.2-76.8 28.8-118.4 28.8-92.8-3.2-137.6-38.4-179.2-73.6zM1008 128c-76.8 0-115.2 32-153.6 67.2-41.6 38.4-86.4 76.8-176 76.8s-134.4-38.4-176-76.8c-41.6-35.2-80-67.2-156.8-67.2s-115.2 32-153.6 67.2c-41.6 38.4-86.4 76.8-176 76.8-9.6 0-16-9.6-16-19.2s6.4-19.2 16-19.2c76.8 0 115.2-32 153.6-67.2 41.6-38.4 86.4-76.8 176-76.8s134.4 38.4 176 76.8c38.4 35.2 76.8 67.2 153.6 67.2s115.2-32 153.6-67.2c41.6-38.4 86.4-76.8 176-76.8 9.6 0 16 9.6 16 19.2 3.2 9.6-3.2 19.2-12.8 19.2z" />
<glyph unicode="&#xe90a;" glyph-name="ansprechpartner" d="M988.8 403.2l-83.2 41.6c-6.4 3.2-9.6 9.6-9.6 16v19.2c19.2 16 32 41.6 32 70.4v16c0 0 0 0 0 0 9.6 0 16 6.4 16 16v32c0 51.2-41.6 96-96 96h-32c-51.2 0-96-41.6-96-96v-32c0-9.6 6.4-16 16-16 0 0 0 0 0 0v-16c0-28.8 12.8-54.4 32-70.4v-22.4c0-6.4-32-32-44.8-41.6-9.6 12.8-19.2 25.6-35.2 32l-89.6 38.4c-6.4 3.2-9.6 9.6-9.6 16v22.4c28.8 22.4 48 57.6 48 99.2v32c9.6 6.4 16 16 16 25.6v9.6c0 70.4-57.6 124.8-128 124.8h-32c-70.4 0-128-57.6-128-124.8v-28.8c0-9.6 3.2-19.2 12.8-25.6 0 0 3.2-3.2 3.2-3.2v-6.4c0-38.4 19.2-76.8 48-99.2v-22.4c0-6.4-3.2-12.8-9.6-16l-89.6-38.4c-28.8-12.8-48-41.6-48-70.4v-19.2l-67.2 35.2c-6.4 3.2-9.6 9.6-9.6 16v32c32 19.2 51.2 51.2 51.2 89.6v32c0 38.4-19.2 73.6-48 92.8 0 6.4 3.2 12.8 3.2 19.2 0 35.2-25.6 64-60.8 64s-60.8-28.8-60.8-64c0-6.4 0-12.8 3.2-19.2-28.8-19.2-48-54.4-48-92.8v-32c0-38.4 19.2-70.4 44.8-89.6v-32c0-6.4-3.2-12.8-9.6-16l-48-28.8c-19.2-9.6-32-32-32-57.6v-131.2c0-9.6 6.4-16 12.8-16s12.8 6.4 12.8 16v124.8l22.4-25.6c6.4-6.4 9.6-16 9.6-22.4v-76.8c0-9.6 6.4-16 12.8-16s12.8 6.4 12.8 16v76.8c0 16-6.4 32-16 44.8l-32 35.2c0 0 0 0 0 0 3.2 3.2 3.2 3.2 6.4 6.4l54.4 25.6c3.2 0 6.4 3.2 6.4 3.2l35.2-35.2v-124.8c0-9.6 6.4-16 12.8-16s12.8 6.4 12.8 16v124.8l35.2 35.2c3.2-3.2 3.2-3.2 6.4-3.2l76.8-38.4c0 0 0 0 3.2 0v-144c0-9.6 6.4-16 16-16s16 6.4 16 16v195.2c0 3.2 0 3.2 0 6.4l41.6-38.4c6.4-6.4 9.6-12.8 9.6-22.4v-137.6c0-9.6 6.4-16 16-16s16 6.4 16 16v137.6c0 16-6.4 32-19.2 44.8l-48 48c3.2 3.2 9.6 9.6 16 9.6l86.4 38.4 64-64v-169.6c0-9.6 6.4-16 16-16s16 6.4 16 16v169.6l64 64 86.4-38.4c6.4-3.2 9.6-6.4 16-9.6l-48-48c-12.8-12.8-19.2-28.8-19.2-44.8v-137.6c0-9.6 6.4-16 16-16s16 6.4 16 16v137.6c0 9.6 3.2 16 9.6 22.4l41.6 38.4c0-3.2 0-3.2 0-6.4v-195.2c0-9.6 6.4-16 16-16s16 6.4 16 16v195.2c0 3.2 0 6.4 0 9.6 0 0 0 0 0 0 3.2 0 41.6 28.8 44.8 32l35.2-35.2v-172.8c0-9.6 6.4-16 16-16s16 6.4 16 16v169.6l35.2 35.2c3.2-3.2 3.2-3.2 6.4-3.2l80-41.6-32-22.4c-12.8-12.8-19.2-28.8-19.2-44.8v-124.8c0-9.6 6.4-16 16-16s16 6.4 16 16v124.8c0 9.6 3.2 16 9.6 22.4l22.4 22.4c0-3.2 0-6.4 0-9.6v-163.2c0-9.6 6.4-16 16-16s16 6.4 16 16v163.2c0 28.8-12.8 48-35.2 60.8zM150.4 710.4c16 0 32-16 32-32 0-3.2 0-3.2 0-6.4-9.6 3.2-22.4 6.4-32 6.4s-22.4-3.2-32-6.4c0 3.2 0 3.2 0 6.4 0 19.2 16 32 32 32zM150.4 646.4c41.6 0 76.8-35.2 76.8-80v-6.4c-57.6-19.2-83.2 22.4-83.2 25.6-3.2 3.2-6.4 6.4-9.6 6.4s-9.6 0-9.6-3.2c-12.8-12.8-38.4-16-48-19.2-3.2 41.6 32 76.8 73.6 76.8zM150.4 364.8l-32 35.2c0 3.2 0 6.4 0 12.8v19.2c9.6-3.2 19.2-6.4 32-6.4 9.6 0 22.4 3.2 32 6.4v-19.2c0-3.2 0-9.6 0-12.8l-32-35.2zM150.4 454.4c-41.6 0-76.8 35.2-76.8 80v3.2c12.8 3.2 41.6 3.2 57.6 19.2 6.4-6.4 16-12.8 25.6-19.2 12.8-6.4 19.2-9.6 41.6-9.6 9.6 0 19.2 0 28.8 3.2-3.2-44.8-35.2-76.8-76.8-76.8zM396.8 659.2c0 0 0 0 0 0s0 0 0 0v32c0 54.4 44.8 96 99.2 96h32c54.4 0 99.2-41.6 99.2-96v-3.2c0 0 0 0 0 0-89.6-16-137.6 16-150.4 32-6.4 6.4-16 6.4-22.4 0 0 0 0-3.2-3.2-3.2 0 0 0 0 0 0-9.6-9.6-44.8-54.4-54.4-57.6zM512 425.6l-57.6 54.4c3.2 6.4 6.4 16 6.4 22.4v9.6c16-6.4 32-9.6 51.2-9.6 16 0 35.2 3.2 51.2 9.6v-6.4c0-9.6 3.2-16 6.4-22.4l-57.6-57.6zM512 531.2c-54.4 0-99.2 41.6-99.2 96v6.4c9.6 3.2 38.4 38.4 51.2 51.2 44.8-35.2 108.8-35.2 147.2-32v-25.6c0-54.4-44.8-96-99.2-96zM752 601.6v12.8c0 35.2 28.8 64 64 64h32c35.2 0 64-28.8 64-64v-16c-64 3.2-105.6 28.8-105.6 28.8-3.2 3.2-6.4 3.2-9.6 3.2s-6.4 0-9.6-3.2c-9.6-16-25.6-22.4-35.2-25.6zM832 412.8l-32 35.2c0 3.2 0 6.4 0 12.8v3.2c9.6-3.2 22.4-6.4 32-6.4 12.8 0 22.4 3.2 32 6.4v-3.2c0-3.2 0-9.6 0-12.8l-32-35.2zM832 486.4c-35.2 0-64 28.8-64 64v25.6c9.6 3.2 22.4 9.6 35.2 22.4 16-9.6 48-22.4 96-25.6v-19.2c0-38.4-28.8-67.2-67.2-67.2z" />
<glyph unicode="&#xe90b;" glyph-name="service" d="M598.4 473.6h-35.2v275.2c0 12.8-9.6 19.2-19.2 19.2h-51.2c-3.2 0-9.6-3.2-12.8-6.4l-92.8-83.2c-9.6-6.4-9.6-19.2-3.2-28.8l32-41.6c3.2-3.2 9.6-6.4 12.8-6.4 6.4 0 9.6 0 16 3.2l22.4 19.2v-153.6h-41.6c-9.6 0-19.2-9.6-19.2-19.2v-48c0-12.8 9.6-19.2 19.2-19.2h176c9.6 0 19.2 9.6 19.2 19.2v48c0 12.8-9.6 22.4-22.4 22.4zM588.8 416h-153.6v25.6h41.6c9.6 0 19.2 9.6 19.2 19.2v192c0 9.6-3.2 16-12.8 19.2-6.4 3.2-16 3.2-19.2-3.2l-28.8-25.6-19.2 22.4 83.2 73.6h35.2v-275.2c0-12.8 9.6-19.2 19.2-19.2h35.2v-28.8zM784 572.8c0 153.6-124.8 278.4-278.4 278.4s-278.4-124.8-278.4-278.4c0-153.6 124.8-278.4 278.4-278.4s278.4 121.6 278.4 278.4zM505.6 339.2c-128 0-233.6 105.6-233.6 233.6s105.6 233.6 233.6 233.6 233.6-105.6 233.6-233.6c0-128-105.6-233.6-233.6-233.6zM982.4 102.4l-150.4 236.8c-3.2 3.2-3.2 3.2-6.4 6.4 3.2 9.6 6.4 22.4 3.2 35.2-3.2 19.2 6.4 38.4 22.4 44.8s25.6 19.2 28.8 35.2c3.2 16 3.2 32-6.4 48s-9.6 38.4 3.2 51.2c9.6 12.8 16 28.8 16 44.8s-9.6 32-22.4 41.6c-16 12.8-22.4 32-12.8 51.2 6.4 16 6.4 32-3.2 48-6.4 16-19.2 25.6-35.2 32-19.2 6.4-32 22.4-32 41.6 0 16-6.4 32-19.2 44.8s-28.8 16-44.8 16c-19.2-3.2-35.2 9.6-44.8 25.6-6.4 16-19.2 28.8-32 35.2-16 6.4-32 6.4-48-3.2s-38.4-3.2-51.2 9.6c-22.4 25.6-64 25.6-86.4 0-12.8-12.8-32-19.2-51.2-9.6-16 6.4-32 9.6-48 3.2s-28.8-19.2-32-35.2c-3.2-22.4-22.4-35.2-41.6-32-16 0-32-3.2-44.8-16-12.8-9.6-19.2-25.6-19.2-41.6 0-19.2-12.8-35.2-32-41.6-12.8-6.4-25.6-16-35.2-32-6.4-16-9.6-32-3.2-48 6.4-19.2 0-38.4-12.8-51.2-12.8-9.6-22.4-25.6-22.4-41.6s3.2-32 16-44.8c12.8-12.8 16-35.2 3.2-51.2-9.6-12.8-9.6-32-6.4-48s16-28.8 28.8-35.2c16-9.6 25.6-28.8 22.4-44.8s0-28.8 6.4-41.6l-150.4-233.6c-3.2-6.4-3.2-12.8 0-16 3.2-6.4 9.6-9.6 16-6.4l150.4 16 54.4-147.2c6.4-9.6 12.8-12.8 19.2-12.8 0 0 0 0 3.2 0 6.4 0 9.6 3.2 12.8 6.4l147.2 240c16-3.2 28.8 3.2 41.6 12.8 6.4 3.2 12.8 6.4 22.4 9.6 3.2 0 3.2 0 9.6 0v0c6.4 0 12.8-3.2 19.2-9.6 9.6-6.4 22.4-12.8 35.2-12.8 3.2 0 6.4 0 9.6 0s3.2 0 6.4 3.2l147.2-240c3.2-3.2 9.6-6.4 12.8-6.4 0 0 0 0 3.2 0 6.4 0 12.8 3.2 12.8 9.6l54.4 147.2 150.4-16c6.4 0 12.8 3.2 16 6.4s3.2 9.6 0 16zM284.8-12.8l-48 128c-3.2 6.4-12.8 12.8-19.2 9.6l-131.2-12.8 128 201.6c6.4-3.2 12.8-6.4 19.2-6.4 3.2 0 9.6 0 12.8-3.2 12.8-6.4 22.4-16 22.4-32 3.2-16 12.8-28.8 25.6-38.4s32-12.8 48-6.4c16 3.2 35.2 0 44.8-16 0 0 3.2-3.2 3.2-3.2 3.2-6.4 9.6-9.6 12.8-16l-118.4-204.8zM585.6 243.2l-3.2-3.2c-3.2-3.2-3.2-3.2-3.2-6.4-3.2-3.2-3.2-3.2-6.4-6.4-3.2 0-6.4 0-9.6 3.2-12.8 9.6-25.6 16-41.6 16v0h-3.2c-6.4 0-16 0-16 0h-6.4c-16-3.2-28.8-9.6-41.6-16-3.2-3.2-6.4-3.2-9.6-3.2s-6.4 3.2-6.4 6.4c0 3.2-3.2 3.2-6.4 9.6-22.4 28.8-60.8 41.6-96 32-3.2 0-6.4 0-9.6 0-3.2 3.2-3.2 3.2-6.4 6.4-6.4 28.8-22.4 51.2-48 64-3.2 0-3.2 3.2-6.4 3.2-9.6 3.2-16 6.4-25.6 6.4-3.2 0-6.4 3.2-9.6 3.2-3.2 3.2-3.2 6.4-3.2 9.6 6.4 38.4-12.8 80-48 96-3.2 0-6.4 3.2-6.4 6.4s0 6.4 0 9.6c19.2 35.2 16 76.8-9.6 108.8-3.2 3.2-3.2 6.4-3.2 9.6s3.2 6.4 3.2 9.6c32 25.6 44.8 67.2 28.8 102.4 0 3.2 0 6.4 0 9.6s3.2 6.4 6.4 6.4c38.4 9.6 64 44.8 64 86.4 0 3.2 0 6.4 3.2 9.6s6.4 3.2 9.6 3.2c38.4-3.2 76.8 19.2 92.8 57.6 0 3.2 3.2 6.4 6.4 6.4s6.4 0 9.6 0c35.2-19.2 80-9.6 105.6 19.2 3.2 6.4 12.8 6.4 16 0 25.6-28.8 70.4-38.4 105.6-19.2 3.2 0 6.4 3.2 9.6 0 3.2 0 6.4-3.2 6.4-6.4 12.8-38.4 51.2-60.8 92.8-57.6 3.2 0 6.4 0 9.6-3.2s3.2-6.4 3.2-9.6c0-38.4 25.6-76.8 64-86.4 3.2 0 6.4-3.2 6.4-6.4s3.2-6.4 0-9.6c-12.8-38.4-3.2-80 28.8-102.4 3.2-3.2 3.2-6.4 3.2-9.6s0-6.4-3.2-9.6c-25.6-28.8-32-73.6-9.6-108.8 3.2-3.2 3.2-6.4 0-9.6 0-3.2-3.2-6.4-6.4-6.4-35.2-19.2-54.4-57.6-48-96 0-3.2 0-6.4-3.2-9.6s-6.4-3.2-9.6-3.2c-9.6 0-19.2-3.2-25.6-6.4-3.2 0-3.2-3.2-6.4-3.2-25.6-12.8-44.8-35.2-48-64 0-3.2-3.2-6.4-6.4-6.4-3.2-3.2-6.4-3.2-9.6 0-16 9.6-54.4-3.2-73.6-32zM806.4 124.8c-6.4 0-12.8-3.2-16-9.6l-48-128-131.2 214.4c3.2 3.2 3.2 6.4 6.4 6.4 0 0 3.2 3.2 3.2 3.2 9.6 12.8 28.8 19.2 44.8 16s32-3.2 48 6.4c12.8 9.6 22.4 22.4 25.6 38.4 3.2 12.8 12.8 25.6 25.6 32 3.2 3.2 9.6 3.2 12.8 3.2 9.6 0 19.2 6.4 28.8 9.6l131.2-208-131.2 16z" />
<glyph unicode="&#xe90c;" glyph-name="energie" d="M784 784c3.2 0 9.6 0 12.8 3.2l19.2 19.2c6.4 6.4 6.4 16 0 22.4s-16 6.4-22.4 0l-19.2-19.2c-6.4-6.4-6.4-16 0-22.4 0 0 6.4-3.2 9.6-3.2zM537.6 796.8c3.2-3.2 6.4-3.2 12.8-3.2 3.2 0 9.6 0 12.8 3.2 6.4 6.4 6.4 16 0 22.4l-19.2 19.2c-6.4 6.4-16 6.4-22.4 0s-6.4-16 0-22.4l16-19.2zM1004.8 640c-25.6 25.6-131.2 22.4-220.8 9.6-6.4 0-9.6-3.2-16-3.2 3.2 12.8 6.4 25.6 6.4 38.4 0 64-51.2 115.2-115.2 115.2-38.4 0-73.6-19.2-96-51.2-6.4 6.4-12.8 16-19.2 22.4-67.2 67.2-297.6 128-297.6 128s-6.4 0-6.4 0c-89.6 16-195.2 19.2-220.8-6.4s-22.4-134.4-9.6-224c12.8-73.6 44.8-214.4 134.4-304 57.6-57.6 179.2-83.2 224-105.6 0 0 0 0 0 0 3.2-60.8 25.6-118.4 70.4-166.4l-73.6-73.6c-6.4-6.4-6.4-16 0-22.4 3.2-3.2 6.4-3.2 9.6-3.2s6.4 0 9.6 3.2l73.6 73.6c51.2-44.8 108.8-70.4 172.8-70.4 3.2 0 9.6 0 12.8 0 76.8 3.2 156.8 44.8 230.4 118.4 38.4 41.6 92.8 153.6 118.4 220.8 0 0 0 3.2 0 3.2 16 60.8 25.6 128 28.8 185.6 3.2 35.2 3.2 92.8-16 112zM659.2 771.2c48 0 86.4-38.4 86.4-86.4 0-16-3.2-32-12.8-48-25.6-6.4-57.6-16-86.4-25.6-12.8 38.4-32 76.8-60.8 115.2 12.8 25.6 41.6 44.8 73.6 44.8zM41.6 675.2c-9.6 44.8-12.8 92.8-12.8 134.4 0 44.8 9.6 60.8 9.6 60.8 3.2 3.2 19.2 9.6 60.8 9.6 38.4 0 112-6.4 131.2-9.6 16-3.2 227.2-57.6 288-121.6 48-48 80-99.2 96-150.4-48-22.4-92.8-48-131.2-86.4-3.2-3.2-6.4-6.4-9.6-9.6l12.8 118.4c0 9.6-6.4 16-12.8 16-9.6 0-16-6.4-16-12.8l-12.8-128-70.4 70.4 12.8 118.4c0 9.6-6.4 16-12.8 16-9.6 0-16-6.4-16-12.8l-9.6-92.8-64 64 9.6 92.8c0 9.6-6.4 16-12.8 16s-12.8-6.4-16-12.8l-6.4-70.4-64 64c-6.4 6.4-16 6.4-22.4 0s-6.4-16 0-22.4l64-64-67.2-6.4c-9.6 0-12.8-9.6-12.8-16s6.4-12.8 16-12.8c0 0 0 0 3.2 0l92.8 9.6 64-64-92.8-9.6c-9.6 0-12.8-9.6-12.8-16s6.4-12.8 16-12.8c0 0 0 0 3.2 0l115.2 12.8 70.4-70.4-128-12.8c-9.6 0-12.8-9.6-12.8-16s6.4-12.8 16-12.8c0 0 0 0 0 0l128 12.8c-35.2-48-54.4-99.2-57.6-150.4-64 19.2-163.2 51.2-204.8 92.8-86.4 80-121.6 211.2-131.2 284.8zM995.2 531.2c0-57.6-9.6-121.6-28.8-179.2 0 0 0 0 0 0-22.4-64-73.6-172.8-112-211.2-124.8-128-268.8-144-374.4-48l92.8 96 150.4-16c0 0 0 0 0 0 6.4 0 12.8 6.4 16 12.8 0 9.6-6.4 16-12.8 16l-128 12.8 64 67.2 121.6-12.8c0 0 0 0 0 0 6.4 0 12.8 6.4 16 12.8 0 9.6-6.4 16-12.8 16l-99.2 9.6 64 64 86.4-6.4c0 0 0 0 0 0 6.4 0 12.8 6.4 16 12.8 0 9.6-6.4 16-12.8 16l-60.8 6.4 67.2 67.2c6.4 6.4 6.4 16 0 22.4s-16 6.4-22.4 0l-67.2-67.2-6.4 60.8c0 9.6-6.4 16-16 12.8-9.6 0-12.8-9.6-12.8-16l6.4-86.4-64-64-9.6 99.2c0 9.6-9.6 12.8-16 12.8-9.6 0-12.8-9.6-12.8-16l12.8-124.8-64-67.2-12.8 128c0 9.6-9.6 12.8-16 12.8-9.6 0-12.8-9.6-12.8-16l16-153.6-92.8-96c-96 108.8-80 249.6 44.8 377.6 83.2 83.2 211.2 115.2 281.6 128 48 9.6 92.8 12.8 131.2 9.6 41.6 0 57.6-9.6 60.8-9.6 9.6 3.2 19.2-22.4 19.2-83.2zM684.8 812.8c3.2 3.2 3.2 6.4 3.2 12.8v28.8c0 9.6-6.4 16-16 16s-16-6.4-16-16v-28.8c0-9.6 6.4-16 16-16 6.4-3.2 9.6 0 12.8 3.2v0zM864 694.4c-3.2 3.2-6.4 3.2-12.8 3.2h-28.8c-9.6 0-16-6.4-16-16s6.4-16 16-16h28.8c9.6 0 16 6.4 16 16 3.2 6.4 0 12.8-3.2 12.8v0z" />
<glyph unicode="&#xe90d;" glyph-name="sparen" d="M985.6 416l-41.6 12.8c-6.4 3.2-9.6 6.4-12.8 12.8-9.6 28.8-22.4 54.4-38.4 76.8-6.4 9.6-16 22.4-25.6 32 6.4 25.6 9.6 57.6 9.6 83.2 0 38.4-9.6 60.8-22.4 67.2-9.6 3.2-32 16-166.4-44.8-3.2 0-6.4-3.2-9.6-6.4-6.4 3.2-12.8 3.2-19.2 3.2 12.8 25.6 19.2 54.4 19.2 83.2 0 112-92.8 204.8-204.8 204.8-115.2 0-204.8-89.6-204.8-204.8 0-83.2 51.2-156.8 124.8-185.6-9.6-3.2-19.2-6.4-25.6-9.6s-9.6-9.6-6.4-19.2c3.2-6.4 9.6-12.8 16-9.6 67.2 25.6 140.8 25.6 211.2 0 0 0 3.2 0 3.2 0 6.4 0 9.6 3.2 12.8 9.6s0 16-6.4 19.2c-6.4 3.2-22.4 6.4-32 9.6 35.2 16 67.2 41.6 89.6 73.6 6.4 0 12.8-3.2 16-3.2 0 0 0 0 0-3.2-6.4-35.2-6.4-64 0-89.6 6.4-22.4 19.2-41.6 38.4-54.4 22.4-16 48-22.4 73.6-22.4 19.2 0 35.2 3.2 48 9.6s25.6 25.6 35.2 48c3.2-6.4 9.6-9.6 12.8-16 16-22.4 28.8-44.8 35.2-70.4 3.2-16 16-25.6 32-32l41.6-12.8c9.6-3.2 19.2-12.8 19.2-25.6v-67.2c0-12.8-6.4-22.4-19.2-25.6l-67.2-22.4c-9.6-3.2-19.2-9.6-25.6-19.2-25.6-44.8-67.2-83.2-124.8-112-6.4-3.2-9.6-9.6-12.8-16l-22.4-112c0-3.2-3.2-6.4-6.4-6.4h-70.4c-3.2 0-6.4 3.2-6.4 6.4l-12.8 64c-3.2 12.8-12.8 19.2-25.6 19.2-28.8-3.2-60.8-6.4-92.8-6.4-22.4 0-44.8 0-67.2 3.2-12.8 0-22.4-6.4-25.6-19.2l-12.8-60.8c0-3.2-3.2-6.4-6.4-6.4h-70.4c-3.2 0-6.4 3.2-6.4 6.4l-22.4 105.6c0 6.4-6.4 12.8-12.8 16-105.6 60.8-156.8 144-156.8 252.8 0 54.4 12.8 102.4 35.2 144 22.4 38.4 54.4 70.4 96 92.8 6.4 3.2 9.6 12.8 6.4 19.2s-12.8 9.6-19.2 6.4c-80-48-131.2-118.4-144-208v0c0 0-3.2 0-3.2 0 0 9.6 0 19.2-6.4 28.8-9.6 22.4-25.6 35.2-44.8 38.4-16 3.2-28.8-3.2-38.4-16-12.8-19.2-12.8-32-6.4-41.6 6.4-16 25.6-25.6 57.6-32 0 0-3.2-3.2-3.2-3.2-19.2-22.4-41.6-28.8-54.4-28.8-9.6 0-16-6.4-16-16v0c0-9.6 6.4-16 16-16 0 0 3.2 0 3.2 0 19.2 0 48 6.4 76.8 41.6 3.2 6.4 9.6 12.8 9.6 16 3.2 0 6.4 0 9.6 0 0 0 0 0 0 0 0-6.4 0-16 0-25.6 0-60.8 16-115.2 44.8-163.2 25.6-41.6 64-76.8 115.2-105.6l19.2-105.6c3.2-16 19.2-28.8 35.2-28.8h70.4c16 0 32 12.8 35.2 28.8l9.6 54.4c22.4-3.2 44.8-3.2 67.2-3.2 32 0 60.8 3.2 92.8 6.4l9.6-57.6c3.2-16 19.2-28.8 35.2-28.8h70.4c16 0 32 12.8 35.2 28.8l22.4 108.8c60.8 32 105.6 70.4 134.4 121.6 3.2 3.2 6.4 6.4 9.6 6.4l67.2 22.4c22.4 6.4 38.4 28.8 38.4 54.4v67.2c-3.2 28.8-19.2 51.2-41.6 57.6zM470.4 566.4c-96 0-176 76.8-176 176s80 176 176 176c96 0 176-76.8 176-176s-80-176-176-176zM841.6 592c-6.4-48-22.4-89.6-35.2-99.2-16-9.6-57.6-12.8-89.6 9.6s-41.6 60.8-28.8 115.2c0 0 0 0 0 0 0 6.4 6.4 9.6 9.6 12.8 73.6 35.2 118.4 44.8 134.4 44.8 3.2 0 3.2 0 6.4 0 3.2-6.4 9.6-35.2 3.2-83.2zM41.6 428.8c0 3.2 3.2 9.6 3.2 12.8 3.2 3.2 6.4 6.4 9.6 6.4 0 0 0 0 0 0 6.4 0 16-9.6 22.4-22.4 0-3.2 3.2-6.4 3.2-12.8-19.2 3.2-35.2 9.6-38.4 16zM496 684.8c-12.8 0-22.4 3.2-32 12.8-6.4 6.4-9.6 12.8-9.6 22.4h64v16h-64c0 0 0 3.2 0 3.2 0 3.2 0 6.4 0 9.6h64v12.8h-60.8c3.2 9.6 6.4 16 9.6 22.4 6.4 9.6 19.2 12.8 28.8 12.8s19.2-3.2 25.6-6.4l6.4 22.4c-6.4 3.2-19.2 6.4-35.2 6.4-22.4 0-38.4-6.4-51.2-22.4-9.6-9.6-16-22.4-19.2-35.2h-16v-16h12.8c0-3.2 0-6.4 0-9.6 0 0 0-3.2 0-3.2h-12.8v-12.8h16c3.2-16 6.4-25.6 16-35.2 12.8-16 32-25.6 54.4-25.6 16 0 28.8 3.2 35.2 9.6l-6.4 22.4c-3.2-3.2-12.8-6.4-25.6-6.4zM803.2 361.6c3.2 0 3.2 0 6.4 0 19.2 0 35.2 9.6 54.4 32 3.2 3.2 3.2 9.6 0 12.8s-9.6 3.2-12.8 0c-12.8-16-28.8-25.6-41.6-22.4-22.4 3.2-35.2 28.8-35.2 28.8-3.2 3.2-9.6 6.4-12.8 3.2-6.4-3.2-6.4-9.6-3.2-12.8-3.2-3.2 12.8-38.4 44.8-41.6z" />
<glyph unicode="&#xe90e;" glyph-name="garantie" d="M1020.8 521.6l-172.8 224c-6.4 9.6-19.2 9.6-25.6 3.2l-112-70.4h-144c-3.2 0-3.2 0-6.4 0l-112-32-115.2 32-112 70.4c-9.6 6.4-19.2 3.2-25.6-6.4l-188.8-236.8c-9.6-6.4-6.4-19.2 0-25.6l99.2-86.4 89.6-121.6c-25.6-28.8-25.6-70.4 0-99.2 12.8-12.8 28.8-19.2 41.6-19.2 0-3.2 0-6.4 0-9.6 0-19.2 6.4-38.4 19.2-51.2s32-22.4 51.2-22.4c0 0 0 0 0 0s0 0 0 0c0-19.2 6.4-38.4 19.2-51.2s32-22.4 51.2-22.4c3.2 0 6.4 0 9.6 0 0-16 9.6-32 19.2-44.8 12.8-12.8 32-22.4 51.2-22.4s35.2 6.4 51.2 22.4l9.6 9.6 3.2-3.2c12.8-12.8 32-19.2 48-19.2 19.2 0 35.2 6.4 51.2 22.4 12.8 12.8 22.4 32 19.2 51.2 19.2 0 38.4 6.4 51.2 22.4 12.8 12.8 22.4 32 19.2 51.2 19.2 0 38.4 6.4 51.2 22.4 12.8 12.8 22.4 32 19.2 51.2 19.2 0 38.4 6.4 51.2 22.4 25.6 25.6 25.6 60.8 9.6 89.6l64 137.6 99.2 83.2c19.2 6.4 22.4 19.2 16 28.8zM48 499.2l166.4 204.8 80-51.2-176-214.4-70.4 60.8zM224 201.6c-12.8 12.8-12.8 32 0 44.8l25.6 25.6c0 0 0 0 3.2 3.2s9.6 6.4 16 6.4c0 0 0 0 0 0s3.2 0 3.2 0c9.6 0 16-3.2 22.4-9.6 12.8-12.8 9.6-32 0-44.8l-22.4-22.4c-16-12.8-35.2-12.8-48-3.2zM310.4 112c-9.6 0-16 3.2-22.4 9.6s-9.6 12.8-9.6 22.4c0 9.6 3.2 16 9.6 22.4l48 48c9.6 9.6 22.4 12.8 35.2 6.4s19.2-19.2 16-32c0-6.4-3.2-12.8-9.6-19.2l-48-48c-3.2-6.4-9.6-9.6-19.2-9.6zM403.2 48c-6.4-6.4-12.8-9.6-22.4-9.6s-16 3.2-22.4 9.6c-6.4 6.4-9.6 12.8-9.6 22.4s3.2 16 9.6 22.4l48 48c9.6 9.6 25.6 12.8 38.4 6.4 9.6-6.4 16-19.2 16-32 0-6.4-3.2-12.8-9.6-19.2l-48-48zM508.8 9.6l-22.4-22.4c-12.8-12.8-32-12.8-44.8 0s-12.8 32 0 44.8l25.6 25.6c0 0 0 0 3.2 3.2 0 0 0 0 0 0 3.2 3.2 9.6 6.4 12.8 6.4 0 0 0 0 0 0s3.2 0 3.2 0c0 0 0 0 0 0s0 0 3.2 0c9.6 0 16-3.2 22.4-9.6 0 0 0 0 3.2-3.2 6.4-16 6.4-35.2-6.4-44.8zM816 211.2c-12.8-12.8-32-12.8-44.8 0 0 0 0 0 0 0l-128 131.2c-6.4 6.4-19.2 6.4-28.8 0-6.4-6.4-6.4-19.2 0-28.8l131.2-131.2c0 0 0 0 0 0 12.8-12.8 12.8-32 0-44.8-6.4-6.4-12.8-9.6-22.4-9.6s-16 3.2-22.4 9.6l-86.4 89.6c-6.4 6.4-19.2 6.4-28.8 0-6.4-6.4-6.4-19.2 0-28.8l86.4-86.4c0 0 0 0 0 0 12.8-12.8 12.8-32 0-44.8s-32-12.8-44.8 0l-48 48c-6.4 6.4-19.2 6.4-28.8 0-6.4-6.4-6.4-19.2 0-28.8l44.8-48c0 0 0 0 0 0 12.8-12.8 12.8-32 0-44.8s-32-12.8-44.8 0c0 0-3.2 3.2-3.2 3.2s-3.2 3.2 0 3.2 3.2 3.2 3.2 3.2c0 3.2 0 3.2 3.2 6.4 3.2 9.6 3.2 19.2 3.2 32-3.2 19.2-12.8 38.4-28.8 48-9.6 6.4-19.2 9.6-28.8 12.8 6.4 22.4 0 48-16 64-12.8 12.8-32 22.4-51.2 22.4 0 0 0 0-3.2 0 0 19.2-6.4 38.4-19.2 51.2s-32 22.4-51.2 22.4c-6.4 0-12.8 0-16-3.2-3.2 16-9.6 32-22.4 44.8-16 9.6-32 16-48 16s-35.2-6.4-48-16l-76.8 105.6 185.6 227.2 57.6-16-76.8-140.8c-9.6-16-12.8-35.2-6.4-54.4s16-35.2 32-41.6c0 0 3.2 0 3.2-3.2 0 0 0 0 0 0 3.2 0 6.4-3.2 9.6-3.2 12.8-3.2 28.8-6.4 41.6 0 19.2 6.4 32 16 41.6 32l51.2 89.6 89.6-6.4 240-240c12.8-9.6 12.8-32 0-41.6zM825.6 304l-224 224c0 0 0 0 0 0-3.2 3.2-6.4 3.2-12.8 3.2l-108.8 6.4c-6.4 0-16-3.2-19.2-9.6l-57.6-99.2c-3.2-6.4-9.6-12.8-19.2-16-6.4-3.2-16 0-22.4 3.2s-12.8 9.6-16 19.2c-3.2 6.4 0 16 3.2 22.4l76.8 134.4 32 9.6c0 0 0 0 0 0l115.2 32h137.6l172.8-220.8-57.6-108.8zM905.6 448l-160 201.6 83.2 54.4 147.2-195.2-70.4-60.8zM646.4 732.8c6.4 0 9.6 3.2 12.8 6.4l131.2 131.2c6.4 6.4 6.4 19.2 0 28.8-6.4 6.4-19.2 6.4-25.6 0l-131.2-131.2c-6.4-6.4-6.4-19.2 0-28.8 3.2-6.4 9.6-6.4 12.8-6.4zM396.8 736c3.2-3.2 9.6-6.4 12.8-6.4 6.4 0 9.6 3.2 12.8 6.4 6.4 6.4 6.4 19.2 0 28.8l-128 131.2c-9.6 6.4-19.2 6.4-28.8 0-6.4-6.4-6.4-19.2 0-28.8l131.2-131.2zM528 745.6c9.6 0 19.2 9.6 19.2 19.2v176c0 9.6-9.6 19.2-19.2 19.2s-19.2-9.6-19.2-19.2v-176c0-12.8 9.6-19.2 19.2-19.2z" />
<glyph unicode="&#xe90f;" glyph-name="formular" d="M1020.8 720c-3.2 12.8-12.8 25.6-25.6 32s-25.6 9.6-38.4 6.4c-12.8-3.2-25.6-12.8-32-22.4l-9.6-16c-9.6 3.2-19.2 3.2-22.4-6.4l-208-352-35.2-96-16-32c-9.6-16-9.6-38.4 3.2-54.4l-38.4-48-12.8 28.8c-6.4 12.8-16 19.2-28.8 22.4-12.8 0-25.6-6.4-32-16l-6.4-9.6-6.4 25.6c0 16-12.8 28.8-28.8 32s-32-6.4-38.4-22.4l-41.6-83.2c-3.2-9.6 3.2-19.2 9.6-22.4 3.2 0 3.2 0 6.4 0 6.4 0 12.8 3.2 16 12.8l41.6 83.2 6.4-28.8c0-16 12.8-25.6 25.6-28.8 16-3.2 28.8 3.2 38.4 16l6.4 9.6 9.6-25.6c3.2-9.6 16-19.2 25.6-22.4 12.8-3.2 25.6 3.2 32 12.8l41.6 51.2c3.2 0 9.6-3.2 12.8-3.2 19.2 0 35.2 9.6 44.8 25.6l16 28.8 67.2 76.8 147.2 252.8 16-9.6c3.2-3.2 6.4-6.4 9.6-9.6 0-3.2 0-9.6-3.2-12.8l-28.8-54.4c-3.2-3.2-3.2-9.6-3.2-12.8s3.2-9.6 6.4-9.6c3.2-3.2 9.6-3.2 12.8-3.2s9.6 3.2 9.6 6.4l28.8 54.4c6.4 12.8 9.6 25.6 6.4 38.4s-12.8 25.6-25.6 32l-16 9.6 41.6 73.6c3.2 9.6 3.2 19.2-6.4 22.4l9.6 16c16 6.4 19.2 19.2 12.8 32v0zM956.8 716.8c3.2 3.2 6.4 6.4 9.6 6.4s9.6 0 12.8-3.2c3.2-3.2 6.4-6.4 9.6-9.6 0-3.2 0-9.6-3.2-12.8l-9.6-16-28.8 16 9.6 19.2zM723.2 243.2l-9.6 6.4-25.6 16 25.6 64 54.4-32-44.8-54.4zM668.8 195.2c-6.4 6.4-9.6 16-6.4 22.4l9.6 16 28.8-16-9.6-16c-3.2-3.2-6.4-6.4-12.8-9.6 0 0-3.2 0-9.6 3.2zM787.2 326.4l-60.8 35.2 137.6 233.6 60.8-35.2-137.6-233.6zM940.8 588.8l-60.8 35.2 35.2 57.6 60.8-35.2-35.2-57.6zM307.2 230.4l-99.2-96-35.2 32c-6.4 6.4-16 6.4-22.4 0-3.2-3.2-6.4-6.4-6.4-12.8 0-3.2 3.2-9.6 6.4-12.8l35.2-32c6.4-6.4 12.8-9.6 22.4-9.6s16 3.2 22.4 9.6l99.2 96c6.4 6.4 6.4 16 0 22.4s-16 6.4-22.4 3.2zM54.4 156.8c0-80 64-147.2 147.2-147.2s147.2 64 147.2 147.2c0 9.6-6.4 16-16 16s-16-6.4-16-16c0-60.8-51.2-112-112-112s-112 51.2-112 112 51.2 112 112 112c25.6 0 48-6.4 67.2-22.4 6.4-6.4 19.2-3.2 25.6 3.2 0 6.4 0 16-9.6 22.4-44.8 32-102.4 38.4-153.6 12.8-48-22.4-80-73.6-80-128zM614.4 851.2h-473.6c-9.6 0-16-6.4-16-16v-60.8c0-9.6 6.4-16 16-16h473.6c9.6 0 16 6.4 16 16v60.8c3.2 9.6-6.4 16-16 16zM156.8 790.4v32h441.6v-32h-441.6zM134.4 681.6c-6.4 0-16-9.6-16-19.2s6.4-19.2 16-19.2h332.8c9.6 0 16 9.6 16 19.2s-6.4 19.2-16 19.2h-332.8zM636.8 547.2c0 9.6-6.4 19.2-16 19.2h-476.8c-9.6 0-16-9.6-16-19.2s6.4-19.2 16-19.2h476.8c9.6 0 16 6.4 16 19.2zM230.4 416c9.6 0 16 9.6 16 19.2s-6.4 19.2-16 19.2h-86.4c-9.6 0-16-9.6-16-19.2 0-12.8 6.4-19.2 16-19.2h86.4zM300.8 416h256c9.6 0 16 9.6 16 19.2s-6.4 19.2-16 19.2h-256c-9.6 0-16-9.6-16-19.2 0-12.8 6.4-19.2 16-19.2zM752 176c-9.6 0-16-6.4-16-16v-169.6c0-9.6-6.4-16-16-16h-668.8c-9.6 0-16 6.4-16 16v918.4c0 9.6 6.4 16 16 16h668.8c9.6 0 16-6.4 16-16v-361.6c0-9.6 6.4-16 16-16s16 6.4 16 16v361.6c0 28.8-22.4 51.2-51.2 51.2h-665.6c-28.8 0-51.2-22.4-51.2-51.2v-921.6c0-28.8 22.4-51.2 51.2-51.2h668.8c28.8 0 51.2 22.4 51.2 51.2v169.6c-3.2 9.6-9.6 19.2-19.2 19.2z" />
<glyph unicode="&#xe910;" glyph-name="person" d="M352 256c-35.2 0-64 28.8-64 64v192c0 105.6 86.4 192 192 192h64c105.6 0 192-86.4 192-192v-192c0-35.2-28.8-64-64-64h-64v-224c0-54.4-41.6-96-96-96s-96 41.6-96 96v224h-64zM512 960c54.4 0 96-41.6 96-96s-41.6-96-96-96-96 41.6-96 96 41.6 96 96 96z" />
<glyph unicode="&#xe911;" glyph-name="strom" d="M755.2 953.6c-3.2 3.2-6.4 6.4-12.8 6.4h-329.6c-6.4 0-9.6-3.2-12.8-9.6l-208-496c-3.2-6.4 0-16 6.4-19.2 3.2 0 3.2 0 6.4 0h246.4l-150.4-480c-3.2-6.4 3.2-16 9.6-16 6.4-3.2 9.6 0 16 3.2l502.4 640c3.2 6.4 3.2 16-3.2 19.2-3.2 3.2-6.4 3.2-9.6 3.2h-304l236.8 332.8c6.4 3.2 6.4 9.6 6.4 16z" />
<glyph unicode="&#xe912;" glyph-name="gas" d="M604.8 956.8c6.4 3.2 16 3.2 22.4 0 9.6-3.2 12.8-9.6 12.8-19.2 0-99.2 51.2-166.4 108.8-246.4 64-83.2 134.4-179.2 144-332.8v0-9.6c0-9.6 0-19.2 0-32 0-211.2-172.8-384-384-384s-380.8 176-380.8 387.2c0 6.4 0 16 0 22.4 6.4 217.6 115.2 272 118.4 275.2 6.4 3.2 12.8 3.2 19.2 0s9.6-9.6 9.6-16c0 0 19.2-131.2 105.6-150.4 0 57.6 3.2 140.8 22.4 217.6 28.8 105.6 108.8 220.8 201.6 288zM601.6 896c-73.6-64-134.4-156.8-156.8-243.2-19.2-76.8-22.4-160-22.4-230.4 0-12.8-9.6-22.4-22.4-22.4-99.2 0-150.4 86.4-169.6 153.6-28.8-28.8-70.4-92.8-73.6-220.8 0-6.4 0-12.8 0-19.2 0-140.8 86.4-262.4 214.4-316.8-22.4 28.8-38.4 67.2-38.4 108.8 0 3.2 0 6.4 0 9.6 3.2 99.2 51.2 128 57.6 131.2s12.8 3.2 19.2 0c6.4-3.2 9.6-9.6 12.8-16 0 0 3.2-28.8 19.2-44.8 0 22.4 3.2 51.2 9.6 76.8 12.8 51.2 48 102.4 89.6 134.4 6.4 6.4 16 6.4 22.4 3.2s12.8-9.6 12.8-19.2c0-38.4 19.2-67.2 44.8-99.2 28.8-38.4 57.6-80 64-150.4 0-9.6 0-12.8 0-19.2 0-41.6-12.8-80-38.4-108.8 124.8 51.2 214.4 172.8 214.4 316.8 0 9.6 0 19.2 0 28.8v0 9.6c-9.6 140.8-76.8 227.2-140.8 313.6-54.4 64-105.6 131.2-118.4 224z" />
<glyph unicode="&#xe913;" glyph-name="waerme" d="M921.6 960h-819.2c-102.4 0-102.4-102.4-102.4-102.4v-819.2c0-102.4 102.4-102.4 102.4-102.4h819.2c102.4 0 102.4 102.4 102.4 102.4v819.2c0 102.4-102.4 102.4-102.4 102.4zM515.2 832l64-112h-128l64 112zM745.6 448c0-128-102.4-233.6-233.6-233.6-128 0-230.4 102.4-230.4 233.6 0 128 102.4 230.4 230.4 230.4 131.2 0 233.6-102.4 233.6-230.4zM368 684.8l-89.6-89.6-32 124.8 121.6-35.2zM240 384l-112 64 112 64v-128zM240 176l32 124.8 89.6-89.6-121.6-35.2zM512 60.8l-64 112h128l-64-112zM659.2 208l89.6 89.6 32-124.8-121.6 35.2zM755.2 592l-89.6 89.6 124.8 32-35.2-121.6zM787.2 380.8v128l112-64-112-64zM451.2 348.8c0-35.2 22.4-67.2 70.4-99.2-6.4 19.2-9.6 35.2-9.6 51.2 0 22.4 16 57.6 44.8 99.2 28.8 44.8 44.8 76.8 44.8 99.2 0 28.8-12.8 54.4-38.4 80s-60.8 44.8-105.6 57.6c44.8-38.4 67.2-76.8 67.2-115.2 0-19.2-12.8-51.2-35.2-89.6-25.6-35.2-38.4-64-38.4-83.2z" />
<glyph unicode="&#xe914;" glyph-name="erdgsas" d="M921.6 960h-819.2c-102.4 0-102.4-102.4-102.4-102.4v-819.2c0-102.4 102.4-102.4 102.4-102.4h819.2c102.4 0 102.4 102.4 102.4 102.4v819.2c0 102.4-102.4 102.4-102.4 102.4zM208 179.2c-38.4 112 48 230.4 48 230.4-41.6-256 102.4-326.4 102.4-326.4s-112-19.2-150.4 96zM784 204.8c-16-28.8-38.4-51.2-64-70.4-22.4-16-57.6-35.2-89.6-35.2-6.4 22.4-6.4 51.2-9.6 73.6-6.4 44.8-19.2 86.4-38.4 128-9.6 19.2-19.2 38.4-32 57.6-6.4 9.6-12.8 16-19.2 25.6-6.4 6.4-12.8 16-19.2 16 0-9.6 3.2-19.2 6.4-28.8 9.6-64-12.8-131.2-57.6-176-12.8-12.8-28.8-22.4-44.8-28.8-12.8-6.4-32-19.2-41.6-6.4-22.4 28.8-41.6 60.8-54.4 92.8-28.8 70.4-22.4 150.4 9.6 217.6 16 35.2 38.4 67.2 60.8 96 25.6 28.8 54.4 51.2 83.2 80 48 48 89.6 128 64 198.4 3.2-3.2 9.6-6.4 12.8-6.4 32-19.2 57.6-48 73.6-80 12.8-35.2 16-76.8 16-118.4s-12.8-86.4-6.4-128c3.2-16 9.6-35.2 25.6-44.8s35.2-12.8 51.2-6.4 28.8 19.2 38.4 35.2c9.6 16 12.8 38.4 25.6 51.2 9.6-19.2 12.8-41.6 19.2-60.8 6.4-22.4 9.6-44.8 12.8-67.2 12.8-70.4 12.8-147.2-22.4-214.4z" />
<glyph unicode="&#xe915;" glyph-name="glasfaser" d="M499.2 150.4v105.6h-80c19.2-35.2 48-73.6 80-105.6zM265.6 256c41.6-54.4 99.2-96 166.4-112-32 38.4-54.4 76.8-73.6 112h-92.8zM396.8 310.4h102.4v89.6h-121.6c0-32 9.6-60.8 19.2-89.6zM323.2 396.8h-118.4c3.2-32 12.8-60.8 25.6-89.6h108.8c-9.6 32-12.8 60.8-16 89.6zM425.6 742.4c-76.8-22.4-144-76.8-182.4-144h105.6c22.4 57.6 51.2 105.6 76.8 144zM332.8 544h-112c-9.6-28.8-16-60.8-16-92.8h115.2c3.2 32 6.4 64 12.8 92.8zM377.6 499.2c-3.2-16-3.2-32-6.4-51.2h124.8v96h-112c0-12.8-3.2-28.8-6.4-44.8zM675.2 396.8h-124.8v-89.6h102.4c12.8 32 19.2 60.8 22.4 89.6zM550.4 256v-105.6c32 35.2 57.6 67.2 80 105.6h-80zM921.6 960h-819.2c-102.4 0-102.4-102.4-102.4-102.4v-819.2c0-102.4 102.4-102.4 102.4-102.4h819.2c102.4 0 102.4 102.4 102.4 102.4v819.2c0 102.4-102.4 102.4-102.4 102.4zM864 521.6c0-16-12.8-25.6-25.6-25.6-16 0-25.6 12.8-25.6 25.6 0 16 12.8 25.6 25.6 25.6 12.8 3.2 25.6-9.6 25.6-25.6zM809.6 617.6c12.8 0 22.4-9.6 22.4-22.4s-9.6-22.4-22.4-22.4-22.4 9.6-22.4 22.4c0 12.8 9.6 22.4 22.4 22.4zM764.8 681.6c9.6 0 19.2-9.6 19.2-19.2s-9.6-19.2-19.2-19.2c-9.6 0-19.2 9.6-19.2 19.2s9.6 19.2 19.2 19.2zM512 80c-201.6 0-364.8 163.2-364.8 364.8 0 195.2 153.6 355.2 348.8 364.8v0 0c6.4 0 9.6 0 16 0s9.6 0 16 0 16 0 22.4-3.2v0 0 0c6.4 0 9.6-3.2 12.8-6.4 41.6-28.8 121.6-128 150.4-252.8 25.6-102.4 22.4-246.4-92.8-390.4 115.2 44.8 198.4 156.8 198.4 291.2 0 16 12.8 25.6 25.6 25.6s25.6-12.8 25.6-25.6c6.4-204.8-156.8-368-358.4-368zM672 499.2c-3.2 16-6.4 28.8-9.6 44.8h-112v-92.8h124.8c0 16 0 32-3.2 48zM499.2 598.4v147.2c-22.4-22.4-64-76.8-92.8-147.2 0 0 92.8 0 92.8 0zM550.4 742.4v-147.2h92.8c-25.6 73.6-67.2 124.8-92.8 147.2z" />
<glyph unicode="&#xe916;" glyph-name="strom-2" d="M921.6 960h-819.2c-102.4 0-102.4-102.4-102.4-102.4v-819.2c0-102.4 102.4-102.4 102.4-102.4h358.4v112c19.2-3.2 35.2-6.4 54.4-6.4 16 0 32 3.2 48 6.4v-112h358.4c102.4 0 102.4 102.4 102.4 102.4v819.2c0 102.4-102.4 102.4-102.4 102.4zM710.4 211.2c-54.4-70.4-121.6-105.6-195.2-105.6-76.8 0-140.8 35.2-195.2 105.6s-83.2 156.8-83.2 256c0 28.8 3.2 54.4 9.6 83.2h80v147.2c0 22.4 16 41.6 32 41.6 19.2 0 32-19.2 32-41.6v-147.2h256v150.4c0 22.4 16 41.6 32 41.6 19.2 0 32-19.2 32-41.6v-150.4h70.4c6.4-28.8 9.6-54.4 9.6-83.2 3.2-99.2-25.6-185.6-80-256z" />
<glyph unicode="&#xe917;" glyph-name="wasser" d="M390.4 505.6c0 0-105.6-134.4-64-265.6 41.6-134.4 172.8-115.2 172.8-115.2s-169.6 89.6-108.8 380.8zM921.6 960h-819.2c-102.4 0-102.4-102.4-102.4-102.4v-819.2c0-102.4 102.4-102.4 102.4-102.4h819.2c102.4 0 102.4 102.4 102.4 102.4v819.2c0 102.4-102.4 102.4-102.4 102.4zM691.2 140.8c-51.2-48-108.8-73.6-179.2-73.6s-128 25.6-179.2 73.6-73.6 108.8-73.6 176c0 60.8 28.8 124.8 83.2 185.6l19.2 19.2c41.6 48 73.6 92.8 96 134.4s38.4 96 54.4 166.4c16-70.4 35.2-124.8 54.4-166.4 22.4-41.6 51.2-86.4 96-134.4l19.2-19.2c54.4-60.8 83.2-124.8 83.2-185.6 0-67.2-25.6-128-73.6-176z" />
<glyph unicode="&#xe918;" glyph-name="e-mobilitaet" d="M646.4 390.4c0-22.4 19.2-41.6 41.6-41.6s41.6 19.2 41.6 41.6c0 22.4-19.2 41.6-41.6 41.6s-41.6-19.2-41.6-41.6zM713.6 384h-44.8v12.8h44.8v-12.8zM403.2 396.8c0-6.4 3.2-12.8 6.4-16 6.4-6.4 12.8-12.8 22.4-16 19.2-9.6 38.4-12.8 57.6-12.8 28.8 0 57.6 0 86.4 6.4 12.8 3.2 22.4 9.6 32 16 6.4 6.4 9.6 12.8 9.6 19.2-73.6 0-144 0-214.4 3.2zM332.8 428.8c-22.4 0-41.6-19.2-41.6-41.6s19.2-41.6 41.6-41.6c22.4 0 41.6 19.2 41.6 41.6 0 25.6-16 41.6-41.6 41.6zM358.4 384h-16v-16h-12.8v16h-19.2v12.8h16v16h12.8v-16h16v-12.8zM899.2 960h-774.4c-70.4 0-124.8-54.4-124.8-124.8v-777.6c0-67.2 54.4-121.6 124.8-121.6h777.6c67.2 0 124.8 54.4 124.8 124.8v774.4c-3.2 70.4-57.6 124.8-128 124.8zM508.8 579.2c32 0 64 0 96 0 38.4 0 67.2-16 89.6-44.8 12.8-16 22.4-38.4 22.4-57.6 0-3.2 0-3.2 3.2-6.4 16-6.4 28.8-19.2 35.2-35.2 3.2-3.2 3.2-9.6 3.2-16 0-44.8 0-92.8 0-137.6 0-9.6-6.4-16-16-16-22.4 0-44.8 0-67.2 0-9.6 0-16 6.4-16 16 0 3.2 0 9.6 0 12.8s0 3.2-3.2 3.2c-25.6 0-48 0-73.6-3.2 0 0-3.2 0-3.2 0-41.6 0-83.2 0-124.8 0-25.6 0-51.2 0-80 3.2-6.4 0-9.6 0-16 0-3.2 0-3.2 0-3.2-3.2s0-9.6 0-12.8-9.6-16-16-16c-22.4 0-48 0-70.4 0-9.6 0-16 6.4-16 16 0 28.8 0 57.6 0 83.2 0 19.2 0 35.2 0 54.4 0 9.6 3.2 19.2 9.6 25.6 6.4 9.6 16 19.2 28.8 22.4 0 0 3.2 3.2 3.2 3.2 0 38.4 35.2 92.8 83.2 102.4 9.6 3.2 19.2 3.2 28.8 3.2 35.2 6.4 70.4 3.2 102.4 3.2zM435.2 739.2c9.6-9.6 9.6-19.2 0-28.8-19.2-19.2-38.4-38.4-57.6-60.8 0 0-3.2-3.2-3.2-3.2-9.6 9.6-19.2 19.2-28.8 28.8 0 0 3.2 3.2 3.2 3.2 19.2 19.2 38.4 38.4 60.8 57.6 3.2 9.6 16 9.6 25.6 3.2zM291.2 764.8c16 16 28.8 28.8 44.8 44.8 6.4 6.4 19.2 6.4 28.8 0s9.6-19.2 0-28.8c-19.2-19.2-41.6-41.6-60.8-60.8 0 0-3.2-3.2-3.2 0-9.6 6.4-19.2 16-28.8 25.6 9.6 6.4 12.8 12.8 19.2 19.2zM227.2 739.2c3.2 3.2 9.6 9.6 12.8 12.8s3.2 3.2 6.4 0c25.6-25.6 54.4-54.4 80-80 16-16 32-32 48-48 0 0 3.2-3.2 3.2-3.2s0-3.2-3.2-3.2-9.6-9.6-12.8-12.8c-3.2-3.2-3.2-3.2-6.4 0-16 16-35.2 35.2-51.2 51.2-25.6 22.4-51.2 48-76.8 73.6-3.2 3.2-3.2 6.4 0 9.6zM796.8 214.4c-57.6-67.2-128-108.8-214.4-124.8-32-6.4-64-9.6-96-6.4-102.4 6.4-188.8 48-256 121.6-44.8 48-70.4 102.4-83.2 166.4-3.2 25.6-6.4 48-3.2 73.6 3.2 41.6 12.8 76.8 32 112 0 3.2 3.2 6.4 3.2 6.4s-9.6 9.6-12.8 12.8c3.2 6.4 9.6 9.6 12.8 12.8s3.2 3.2 0 6.4c-12.8 16-16 38.4-12.8 57.6s12.8 35.2 25.6 48c6.4 6.4 16 16 22.4 22.4 44.8-44.8 89.6-89.6 137.6-134.4-16-16-28.8-32-48-38.4-25.6-9.6-51.2-9.6-76.8 3.2-3.2 0-6.4 0-6.4 0-3.2-3.2-6.4-6.4-9.6-9.6s-3.2-3.2-9.6 0c-3.2 3.2-3.2 3.2-6.4 6.4-3.2-12.8-9.6-22.4-12.8-32-12.8-28.8-16-60.8-12.8-92.8 3.2-54.4 16-105.6 44.8-150.4 35.2-57.6 83.2-99.2 144-124.8 28.8-12.8 60.8-22.4 92.8-25.6 22.4-3.2 48-3.2 70.4-3.2 96 6.4 176 44.8 240 115.2 35.2 41.6 57.6 89.6 67.2 144 3.2 22.4 6.4 44.8 3.2 67.2-6.4 92.8-44.8 169.6-118.4 227.2-41.6 32-86.4 54.4-137.6 64-19.2 3.2-38.4 6.4-57.6 3.2-6.4 0-6.4 0-6.4 6.4 0 19.2 0 38.4 0 54.4 0 3.2 0 6.4 6.4 6.4 67.2 0 128-16 185.6-51.2 83.2-51.2 137.6-121.6 166.4-217.6 6.4-22.4 9.6-48 12.8-73.6 3.2-96-25.6-179.2-86.4-252.8zM320 486.4c0-3.2 0-6.4 0-9.6 128 0 256 0 384 0 0 3.2 0 6.4 0 6.4-3.2 32-41.6 76.8-89.6 76.8-57.6 0-115.2 0-172.8 0-12.8 0-28.8 0-41.6 0-44.8-3.2-76.8-44.8-80-73.6z" />
<glyph unicode="&#xe919;" glyph-name="pv" d="M899.2 960h-774.4c-70.4 0-124.8-54.4-124.8-124.8v-777.6c0-67.2 54.4-121.6 124.8-121.6h777.6c67.2 0 124.8 54.4 124.8 124.8v774.4c-3.2 70.4-57.6 124.8-128 124.8zM496 38.4c-224 0-406.4 182.4-406.4 409.6s182.4 406.4 406.4 406.4c41.6 0 83.2-6.4 121.6-19.2-3.2-12.8-3.2-25.6-3.2-38.4 0-99.2 80-179.2 179.2-179.2 22.4 0 44.8 3.2 67.2 12.8 28.8-54.4 44.8-118.4 44.8-185.6 0-224-182.4-406.4-409.6-406.4zM537.6 793.6v0h51.2c6.4 0 9.6 6.4 9.6 9.6 0 6.4-6.4 9.6-9.6 9.6h-51.2c-6.4 0-9.6-6.4-9.6-9.6 0-6.4 3.2-9.6 9.6-9.6zM592 764.8l-48-16c-6.4-3.2-9.6-9.6-6.4-12.8 0-3.2 6.4-6.4 9.6-6.4h3.2l44.8 16c6.4 3.2 9.6 9.6 6.4 12.8 3.2 3.2-3.2 6.4-9.6 6.4zM492.8 617.6c3.2 0 3.2 0 6.4 0l124.8 73.6c6.4 3.2 6.4 9.6 3.2 16s-9.6 6.4-16 3.2l-124.8-73.6c-6.4-3.2-6.4-9.6-3.2-16 3.2-3.2 6.4-3.2 9.6-3.2zM540.8 547.2c3.2-3.2 6.4-3.2 6.4-3.2 3.2 0 6.4 0 6.4 3.2l102.4 105.6c3.2 3.2 3.2 9.6 0 16-3.2 3.2-9.6 3.2-16 0l-102.4-105.6c0-3.2 0-12.8 3.2-16zM697.6 636.8c-6.4 3.2-12.8 0-16-3.2l-70.4-128c-3.2-6.4 0-12.8 3.2-16 3.2 0 3.2 0 6.4 0s6.4 3.2 9.6 6.4l70.4 128c6.4 3.2 3.2 9.6-3.2 12.8zM745.6 614.4c-6.4 0-12.8-3.2-12.8-9.6l-9.6-51.2c0-6.4 3.2-12.8 9.6-12.8 0 0 0 0 3.2 0 6.4 0 9.6 3.2 9.6 9.6l9.6 51.2c0 6.4-3.2 12.8-9.6 12.8zM796.8 608c-6.4 0-9.6-6.4-9.6-9.6v-51.2c0-6.4 6.4-9.6 9.6-9.6v0c6.4 0 9.6 6.4 9.6 9.6v51.2c3.2 6.4-3.2 12.8-9.6 9.6zM848 614.4c-6.4-3.2-9.6-6.4-6.4-12.8l12.8-48c0-3.2 6.4-6.4 9.6-6.4h3.2c6.4 3.2 9.6 6.4 6.4 12.8l-9.6 48c-3.2 6.4-9.6 9.6-16 6.4zM288 537.6v35.2h-57.6v-83.2c0-3.2 57.6 48 57.6 48zM390.4 604.8v0l-227.2-208 25.6-28.8 201.6 185.6 204.8-185.6 25.6 28.8zM438.069 589.856l17.132 19.023 168.832-152.042-17.132-19.023-168.832 152.042zM230.4 374.4v-211.2h112v99.2h105.6v-99.2h112v214.4l-163.2 144-166.4-147.2zM444.8 316.8h-102.4v92.8h102.4v-92.8z" />
<glyph unicode="&#xe91a;" glyph-name="seminar" d="M185.6 96h-38.4c35.2 3.2 60.8 35.2 60.8 76.8s-28.8 76.8-64 76.8-64-35.2-64-76.8c0-41.6 25.6-73.6 60.8-76.8h-28.8c-64 0-102.4-19.2-112-57.6v-102.4h32v99.2c6.4 19.2 32 28.8 80 28.8h70.4c32 0 73.6-3.2 73.6-28.8v-99.2h32v99.2c0 41.6-35.2 60.8-102.4 60.8zM112 172.8c0 25.6 16 44.8 32 44.8s32-19.2 32-44.8-16-44.8-32-44.8-32 19.2-32 44.8zM544 96h-38.4c35.2 3.2 60.8 35.2 60.8 76.8s-28.8 76.8-64 76.8-64-35.2-64-76.8c0-41.6 25.6-73.6 60.8-76.8h-28.8c-64 0-102.4-19.2-112-57.6v-105.6h32v99.2c6.4 19.2 32 28.8 80 28.8h73.6c32 0 73.6-3.2 73.6-28.8v-96h32v99.2c-3.2 41.6-38.4 60.8-105.6 60.8zM470.4 172.8c0 25.6 16 44.8 32 44.8s32-19.2 32-44.8-16-44.8-32-44.8c-16 0-32 19.2-32 44.8zM921.6 96h-38.4c35.2 3.2 60.8 35.2 60.8 76.8s-28.8 76.8-64 76.8-64-35.2-64-76.8c0-41.6 25.6-73.6 60.8-76.8h-28.8c-64 0-102.4-19.2-112-57.6v-105.6h32v99.2c6.4 19.2 32 28.8 80 28.8h70.4c32 0 73.6-3.2 73.6-28.8v-96h32v99.2c0 41.6-35.2 60.8-102.4 60.8zM848 172.8c0 25.6 16 44.8 32 44.8s32-19.2 32-44.8-16-44.8-32-44.8-32 19.2-32 44.8zM400 476.8h32v-156.8h-32v156.8zM976 960h-220.8c-25.6 0-48-22.4-48-48v-291.2c0-3.2 0-6.4 0-9.6 9.6 9.6 22.4 19.2 32 32v268.8c0 9.6 6.4 16 16 16h220.8c9.6 0 16-6.4 16-16v-323.2c0-9.6-6.4-16-16-16h-115.2c-6.4-12.8-12.8-22.4-19.2-32h134.4c25.6 0 48 22.4 48 48v323.2c0 25.6-22.4 48-48 48zM364.8 473.6c6.4 19.2 19.2 41.6 70.4 41.6h185.6c67.2 0 124.8 35.2 169.6 102.4 6.4 6.4 9.6 6.4 16 3.2s9.6-9.6 6.4-16v-3.2c-12.8-28.8-44.8-112-195.2-140.8l-12.8-3.2v-137.6h32v112c102.4 22.4 172.8 76.8 204.8 156.8v3.2c6.4 19.2 0 41.6-19.2 54.4-12.8 12.8-38.4 9.6-54.4-6.4v-3.2c-38.4-60.8-86.4-89.6-144-89.6h-70.4c28.8 16 51.2 51.2 51.2 92.8 0 57.6-38.4 105.6-86.4 105.6s-86.4-48-86.4-105.6c0-41.6 19.2-76.8 51.2-92.8h-38.4c-70.4 0-96-38.4-102.4-70.4v-156.8h32v153.6zM515.2 713.6c32 0 54.4-32 54.4-73.6 0-38.4-25.6-73.6-54.4-73.6-32 0-54.4 32-54.4 73.6-3.2 41.6 22.4 73.6 54.4 73.6z" />
<glyph unicode="&#xe91b;" glyph-name="bezahlung" d="M435.2 332.8h-32v-16h28.8c0-3.2 0-9.6 0-12.8s0-9.6 0-12.8h-28.8v-16h32c12.8-51.2 51.2-76.8 99.2-76.8 9.6 0 22.4 0 28.8 3.2v22.4c-6.4-3.2-19.2-3.2-28.8-3.2-35.2 0-60.8 19.2-70.4 51.2h80v16h-83.2c0 3.2 0 6.4 0 12.8 0 3.2 0 9.6 0 12.8h83.2v16h-80c9.6 35.2 38.4 51.2 70.4 51.2 9.6 0 22.4 0 28.8-3.2v22.4c-6.4 3.2-19.2 3.2-28.8 3.2-44.8 3.2-86.4-19.2-99.2-70.4zM886.4 396.8c-22.4 41.6-76.8 124.8-160 249.6 12.8 9.6 19.2 25.6 19.2 44.8 0 28.8-19.2 51.2-48 57.6l54.4 179.2-9.6 6.4c-51.2 35.2-80 16-102.4 0-12.8-6.4-22.4-12.8-35.2-12.8-16 0-22.4 6.4-32 12.8-9.6 9.6-25.6 22.4-54.4 22.4-32 0-44.8-16-54.4-25.6-6.4-9.6-12.8-12.8-25.6-12.8-19.2 0-25.6 9.6-38.4 19.2-9.6 9.6-25.6 22.4-48 22.4-32 0-51.2-9.6-57.6-28.8l-3.2-3.2 48-176c-28.8-6.4-48-28.8-48-57.6 0-16 6.4-32 16-41.6-86.4-128-140.8-208-163.2-252.8-51.2-96-51.2-192 0-294.4 41.6-86.4 124.8-144 246.4-166.4h252.8c118.4 22.4 201.6 80 243.2 166.4 54.4 99.2 51.2 195.2 0 291.2zM329.6 924.8c3.2 3.2 12.8 6.4 25.6 6.4 9.6 0 16-6.4 25.6-16 12.8-12.8 28.8-25.6 57.6-25.6s41.6 16 51.2 25.6c6.4 9.6 12.8 16 28.8 16 19.2 0 25.6-6.4 35.2-16s25.6-22.4 54.4-22.4c22.4 0 38.4 9.6 51.2 19.2 19.2 12.8 32 22.4 60.8 6.4l-51.2-163.2h-291.2l-48 169.6zM358.4 720h329.6c16 0 28.8-12.8 28.8-28.8s-12.8-28.8-28.8-28.8h-329.6c-16 0-28.8 12.8-28.8 28.8s12.8 28.8 28.8 28.8zM860.8 115.2c-38.4-76.8-112-128-217.6-150.4h-246.4c-108.8 22.4-182.4 73.6-220.8 150.4-60.8 124.8-28.8 211.2 0 265.6 22.4 41.6 76.8 124.8 163.2 249.6 6.4 0 9.6-3.2 16-3.2h329.6c3.2 0 6.4 0 12.8 0 86.4-124.8 140.8-208 163.2-249.6 28.8-51.2 60.8-137.6 0-262.4z" />
<glyph unicode="&#xe91c;" glyph-name="abschlag" d="M649.6 329.6h-460.8v-201.6h457.6v201.6zM617.6 156.8h-396.8v137.6h393.6v-137.6zM188.8 585.6v-201.6h835.2v201.6h-835.2zM992 412.8h-768v137.6h768v-137.6zM790.4 854.4h-601.6v-201.6h601.6v201.6zM758.4 684.8h-537.6v137.6h537.6v-137.6zM102.4 960h-32v-908.8h-70.4v-32h70.4v-83.2h32v83.2h921.6v32h-921.6z" />
<glyph unicode="&#xe91d;" glyph-name="kontakt" d="M857.6 832l-620.8-227.2 166.4-460.8 620.8 227.2-166.4 460.8zM297.6 595.2l518.4 188.8-166.4-352-352 163.2zM528 451.2l-124.8-214.4-118.4 329.6 243.2-115.2zM844.8 771.2l124.8-345.6-240 102.4 115.2 243.2zM416 201.6l137.6 240 112-51.2 51.2 108.8 256-108.8-553.6-201.6-3.2 12.8zM0 528h169.6v-32h-169.6v32zM0 387.2h224v-32h-224v32zM0 249.6h265.6v-32h-265.6v32z" />
<glyph unicode="&#xe91e;" glyph-name="wirtschaftsstandort" d="M176 809.6h73.6v64h-73.6v-64zM198.4 848h25.6v-16h-25.6v16zM176 534.4h73.6v64h-73.6v-64zM198.4 576h25.6v-16h-25.6v16zM176 672h73.6v64h-73.6v-64zM198.4 713.6h25.6v-16h-25.6v16zM176 396.8h73.6v64h-73.6v-64zM198.4 438.4h25.6v-16h-25.6v16zM176 259.2h73.6v64h-73.6v-64zM198.4 300.8h25.6v-16h-25.6v16zM320 809.6h73.6v64h-73.6v-64zM342.4 848h25.6v-16h-25.6v16zM320 534.4h73.6v64h-73.6v-64zM342.4 576h25.6v-16h-25.6v16zM726.4 598.4h-73.6v-64h73.6v64zM704 560h-25.6v16h25.6v-16zM726.4 464h-73.6v-64h73.6v64zM704 422.4h-25.6v16h25.6v-16zM726.4 326.4h-73.6v-64h73.6v64zM704 284.8h-25.6v16h25.6v-16zM320 672h73.6v64h-73.6v-64zM342.4 713.6h25.6v-16h-25.6v16zM320 396.8h73.6v64h-73.6v-64zM342.4 438.4h25.6v-16h-25.6v16zM320 259.2h73.6v64h-73.6v-64zM342.4 300.8h25.6v-16h-25.6v16zM464 809.6h73.6v64h-73.6v-64zM486.4 848h25.6v-16h-25.6v16zM464 534.4h73.6v64h-73.6v-64zM486.4 576h25.6v-16h-25.6v16zM870.4 598.4h-70.4v-64h73.6v64zM848 560h-25.6v16h25.6v-16zM870.4 464h-70.4v-64h73.6v64zM848 422.4h-25.6v16h25.6v-16zM870.4 326.4h-70.4v-64h73.6v64zM848 284.8h-25.6v16h25.6v-16zM464 672h73.6v64h-73.6v-64zM486.4 713.6h25.6v-16h-25.6v16zM464 396.8h73.6v64h-73.6v-64zM486.4 438.4h25.6v-16h-25.6v16zM464 259.2h73.6v64h-73.6v-64zM486.4 300.8h25.6v-16h-25.6v16zM592 694.4v265.6h-496v-1024h860.8v758.4h-364.8zM300.8-32v144h86.4v-144h-86.4zM560-32h-140.8v176h-150.4v-176h-140.8v960h432v-960zM924.8-32h-332.8v694.4h332.8v-694.4z" />
<glyph unicode="&#xe91f;" glyph-name="klimaschutz" d="M198.4 275.2c-28.8 0-48 9.6-64 25.6s-22.4 38.4-22.4 70.4c0 28.8 6.4 54.4 22.4 70.4s38.4 25.6 64 25.6c16 0 35.2-3.2 57.6-6.4v-22.4c-25.6 9.6-44.8 12.8-57.6 12.8-19.2 0-35.2-6.4-44.8-19.2s-16-32-16-54.4c0-22.4 6.4-41.6 16-54.4 12.8-12.8 25.6-19.2 48-19.2 16 0 35.2 6.4 54.4 16v-22.4c-16-16-35.2-22.4-57.6-22.4zM364.8 275.2c-25.6 0-44.8 9.6-60.8 25.6s-22.4 38.4-22.4 67.2c0 28.8 6.4 51.2 22.4 67.2s35.2 25.6 60.8 25.6c25.6 0 44.8-9.6 60.8-25.6s22.4-38.4 22.4-67.2c0-28.8-6.4-51.2-22.4-70.4-12.8-12.8-35.2-22.4-60.8-22.4zM364.8 294.4c19.2 0 32 6.4 41.6 19.2s16 32 16 54.4c0 22.4-6.4 41.6-16 54.4s-22.4 19.2-41.6 19.2c-19.2 0-32-6.4-41.6-19.2s-16-32-16-54.4c0-22.4 6.4-41.6 16-54.4s25.6-19.2 41.6-19.2zM451.2 246.4v12.8c3.2 9.6 12.8 19.2 25.6 32l9.6 6.4c9.6 9.6 16 19.2 16 28.8 0 6.4-3.2 9.6-6.4 12.8s-9.6 6.4-16 6.4c-6.4 0-16-3.2-25.6-9.6v12.8c9.6 3.2 19.2 6.4 28.8 6.4s19.2-3.2 25.6-9.6c6.4-6.4 9.6-12.8 9.6-22.4 0-6.4 0-12.8-3.2-16-3.2-6.4-9.6-9.6-16-19.2l-6.4-3.2c-12.8-9.6-19.2-19.2-19.2-28.8h48v-12.8h-70.4zM899.2 662.4c-19.2 0-32-19.2-32-44.8s12.8-44.8 32-44.8 32 19.2 32 44.8c0 25.6-12.8 44.8-32 44.8zM899.2 601.6c-3.2 0-9.6 6.4-9.6 19.2s6.4 19.2 6.4 19.2c3.2 0 6.4-6.4 6.4-19.2 6.4-12.8 0-19.2-3.2-19.2zM844.8 678.4c16 0 32 19.2 32 41.6s-12.8 41.6-32 41.6c-16 0-32-19.2-32-41.6s16-41.6 32-41.6zM844.8 739.2c0 0 6.4-6.4 6.4-19.2s-6.4-19.2-6.4-19.2-6.4 6.4-6.4 19.2 6.4 19.2 6.4 19.2zM764.8 748.8c19.2 0 35.2 19.2 35.2 44.8s-16 44.8-35.2 44.8-35.2-19.2-35.2-44.8 16-44.8 35.2-44.8zM764.8 816c3.2 0 12.8-9.6 12.8-22.4s-6.4-22.4-12.8-22.4-12.8 9.6-12.8 22.4c0 12.8 9.6 22.4 12.8 22.4zM665.6 790.4c22.4 0 41.6 22.4 41.6 54.4 0 28.8-19.2 54.4-41.6 54.4s-41.6-22.4-41.6-54.4c0-32 19.2-54.4 41.6-54.4zM665.6 873.6c9.6 0 19.2-12.8 19.2-28.8s-9.6-28.8-19.2-28.8-19.2 12.8-19.2 28.8 9.6 28.8 19.2 28.8zM595.2 873.6c0 48-25.6 86.4-60.8 86.4-32 0-60.8-38.4-60.8-86.4s25.6-86.4 60.8-86.4c32 3.2 60.8 41.6 60.8 86.4zM499.2 873.6c0 35.2 19.2 60.8 35.2 60.8s35.2-25.6 35.2-60.8-19.2-60.8-35.2-60.8c-16 0-35.2 25.6-35.2 60.8zM784 662.4c-70.4 57.6-124.8 80-176 80-28.8 0-54.4-6.4-80-22.4-48-25.6-32-112 41.6-262.4 32-89.6 35.2-160 9.6-214.4-38.4-80-89.6-131.2-73.6-230.4 9.6-67.2 44.8-80 86.4-80 19.2 0 41.6 3.2 60.8 6.4 60.8 6.4 80 73.6 89.6 131.2 6.4 57.6 9.6 115.2 19.2 153.6 6.4 35.2 22.4 76.8 64 153.6 44.8 73.6 70.4 198.4-41.6 284.8zM806.4 387.2c-48-83.2-60.8-124.8-67.2-160-3.2-22.4-6.4-54.4-9.6-86.4-3.2-22.4-3.2-44.8-6.4-67.2-6.4-48-22.4-105.6-67.2-108.8h-16c-16-3.2-32-3.2-44.8-3.2-32 0-54.4 9.6-64 60.8-9.6 67.2 12.8 108.8 41.6 160 9.6 16 19.2 35.2 28.8 54.4 28.8 60.8 25.6 137.6-9.6 233.6v0 0c-96 188.8-64 224-51.2 230.4 22.4 12.8 44.8 19.2 67.2 19.2 44.8 0 96-25.6 160-76.8 121.6-96 54.4-227.2 38.4-256z" />
<glyph unicode="&#xe920;" glyph-name="zaehlerstand" d="M416 723.2h195.2v-16h-195.2v16zM345.6 665.6h332.8v-16h-332.8v16zM188.8 441.6h99.2v108.8h-99.2v-108.8zM204.8 534.4h70.4v-76.8h-70.4v76.8zM544 441.6v108.8h-102.4v-108.8h102.4zM460.8 534.4h70.4v-76.8h-70.4v76.8zM416 550.4h-99.2v-108.8h99.2v108.8zM400 454.4h-70.4v76.8h70.4v-76.8zM672 441.6v108.8h-102.4v-108.8h102.4zM588.8 534.4h70.4v-76.8h-70.4v76.8zM736 441.6h102.4v108.8h-102.4v-108.8zM752 534.4h70.4v-76.8h-70.4v76.8zM681.6 336h-316.8c-12.8 0-25.6-12.8-25.6-25.6v-60.8c0-12.8 12.8-25.6 25.6-25.6h316.8c12.8 0 25.6 12.8 25.6 25.6v60.8c0 16-9.6 25.6-25.6 25.6zM691.2 252.8c0-6.4-3.2-9.6-9.6-9.6h-316.8c-6.4 0-9.6 3.2-9.6 9.6v60.8c0 6.4 3.2 9.6 9.6 9.6h316.8c6.4 0 9.6-3.2 9.6-9.6v-60.8zM432 288h195.2v-16h-195.2v16zM700.8 448h16v-41.6h-16v41.6zM956.8 928h-889.6c-35.2 0-67.2-32-67.2-67.2v-844.8c0-38.4 32-67.2 67.2-67.2h886.4c38.4 0 67.2 32 67.2 67.2v844.8c3.2 35.2-28.8 67.2-64 67.2zM992 16c0-19.2-16-35.2-35.2-35.2h-889.6c-19.2 0-35.2 16-35.2 35.2v844.8c0 19.2 16 35.2 35.2 35.2h886.4c22.4 0 38.4-16 38.4-35.2v-844.8zM512 876.8c-243.2 0-441.6-198.4-441.6-441.6s198.4-444.8 441.6-444.8 441.6 201.6 441.6 444.8c0 243.2-198.4 441.6-441.6 441.6zM512 22.4c-227.2 0-409.6 185.6-409.6 409.6 0 230.4 182.4 412.8 409.6 412.8s409.6-185.6 409.6-409.6c0-227.2-182.4-412.8-409.6-412.8zM512 825.6c-214.4 0-390.4-176-390.4-390.4s176-393.6 390.4-393.6c214.4 0 390.4 176 390.4 390.4s-176 393.6-390.4 393.6zM512 73.6c-198.4 0-358.4 160-358.4 358.4s160 358.4 358.4 358.4 358.4-160 358.4-358.4c0-195.2-160-358.4-358.4-358.4z" />
<glyph unicode="&#xe921;" glyph-name="betreuung" d="M963.2-48c-19.2 230.4-214.4 284.8-281.6 297.6l-44.8 76.8c51.2 32 86.4 86.4 96 150.4 54.4 3.2 83.2 22.4 83.2 54.4 16 153.6-9.6 268.8-73.6 339.2-54.4 60.8-131.2 89.6-236.8 89.6-92.8 0-166.4-28.8-220.8-83.2-99.2-102.4-92.8-275.2-89.6-329.6 0-6.4 0-9.6 0-12.8 0-22.4 0-35.2 9.6-44.8 3.2-3.2 3.2-3.2 6.4-3.2 0-38.4 6.4-64 22.4-80 12.8-16 25.6-22.4 48-22.4h25.6c16-22.4 35.2-41.6 57.6-57.6l-41.6-73.6h-3.2c-182.4-32-272-134.4-272-300.8v-16h918.4l-3.2 16zM227.2 512c0 3.2 0 12.8 0 22.4 0 3.2 0 6.4 0 12.8 0 19.2-3.2 57.6 0 99.2h41.6v-137.6c-19.2 0-38.4 0-41.6 3.2zM300.8 678.4c3.2 96 80 172.8 176 172.8h51.2c96 0 176-76.8 176-176v-19.2c-153.6-6.4-233.6 89.6-236.8 89.6l-6.4 6.4h-6.4c-48 0-99.2-25.6-147.2-76.8v3.2h-6.4zM784 534.4c0-16-25.6-22.4-51.2-22.4v134.4h54.4c3.2-35.2 0-70.4-3.2-112zM310.4 854.4c44.8 48 112 73.6 195.2 73.6 92.8 0 166.4-25.6 211.2-76.8 38.4-41.6 60.8-99.2 67.2-172.8h-51.2c-3.2 112-92.8 204.8-208 204.8h-51.2c-112 0-204.8-89.6-208-204.8h-32c6.4 60.8 28.8 128 76.8 176zM281.6 416c-9.6 0-19.2 3.2-22.4 9.6-9.6 9.6-12.8 28.8-12.8 54.4 3.2 0 9.6 0 12.8 0s9.6 0 12.8 0v0c0-25.6 6.4-44.8 16-64h-6.4zM348.8 384h48c9.6-22.4 28.8-35.2 54.4-35.2h60.8c32 0 60.8 25.6 60.8 60.8 0 32-25.6 60.8-60.8 60.8h-64c-28.8 0-54.4-22.4-57.6-51.2h-67.2c-16 25.6-22.4 54.4-22.4 86.4v118.4c51.2 60.8 99.2 96 147.2 99.2 22.4-22.4 108.8-99.2 256-96v-121.6c0-96-76.8-176-176-176h-51.2c-51.2-3.2-96 19.2-128 54.4zM422.4 406.4c0 16 12.8 28.8 28.8 28.8h60.8c16 0 28.8-12.8 28.8-28.8s-12.8-28.8-28.8-28.8h-64c-12.8 3.2-25.6 12.8-25.6 28.8zM80-32c6.4 137.6 83.2 220.8 236.8 252.8 32-51.2 128-211.2 166.4-252.8h-403.2zM345.6 230.4l48 83.2c25.6-9.6 51.2-16 83.2-16h51.2c28.8 0 57.6 6.4 83.2 16l35.2-60.8-3.2-9.6c-12.8-60.8-108.8-198.4-144-243.2-32 32-102.4 144-153.6 230.4zM518.4-32c19.2 25.6 124.8 172.8 150.4 252.8 51.2-6.4 233.6-44.8 259.2-252.8h-409.6z" />
<glyph unicode="&#xe922;" glyph-name="umzug" d="M192 326.4h441.6v-32h-441.6v32zM192 390.4h441.6v-32h-441.6v32zM208 508.8v118.4l32-32 16 19.2-60.8 57.6-60.8-57.6 16-19.2 32 32v-118.4zM108.8 595.2l16 19.2-60.8 57.6-60.8-57.6 16-19.2 32 28.8v-115.2h22.4v118.4zM32 809.6h355.2v-339.2h-195.2v-32h227.2v403.2h-419.2v-118.4h32zM774.4 467.2h-16v-163.2h166.4v16c0 3.2 3.2 57.6-35.2 102.4-25.6 25.6-64 41.6-115.2 44.8zM876.8 384c0 0 3.2-3.2 0 0 9.6-19.2 16-35.2 16-48h-105.6v96c32-3.2 57.6-16 76.8-32 3.2-3.2 3.2-3.2 6.4-6.4s3.2-6.4 6.4-9.6zM950.4 454.4c-51.2 60.8-124.8 99.2-217.6 108.8v144h-291.2v-32h259.2v-467.2h-304c-16 32-48 54.4-86.4 54.4s-70.4-22.4-86.4-54.4h-92.8v182.4h-32v-214.4h115.2c0 0 0 0 0 0 0-3.2 0-6.4 0-9.6 0-51.2 41.6-96 96-96 51.2 0 96 41.6 96 96 0 3.2 0 6.4 0 9.6 0 0 0 0 0 0h368c0-3.2 0-6.4 0-9.6 0-51.2 41.6-96 96-96s96 41.6 96 96c0 3.2 0 6.4 0 9.6v0h57.6l3.2 12.8c-3.2 6.4 12.8 153.6-76.8 265.6zM217.6 192c0 0 0-3.2 0 0 0-3.2 0 0 0 0zM310.4 102.4c-35.2 0-64 28.8-64 64s28.8 64 64 64 64-28.8 64-64-28.8-64-64-64zM400 192c0 0 0-3.2 0 0 0-3.2 0 0 0 0zM774.4 188.8c0 0 0 3.2 0 0 0 3.2 0 0 0 0zM867.2 102.4c-35.2 0-64 28.8-64 64s28.8 64 64 64 64-28.8 64-64-28.8-64-64-64zM992 204.8h-38.4c-16 32-48 54.4-86.4 54.4s-70.4-22.4-86.4-54.4h-48v326.4c83.2-9.6 150.4-41.6 192-96 67.2-83.2 67.2-192 67.2-230.4zM960 188.8c0 0 0 3.2 0 0 0 3.2 0 0 0 0z" />
<glyph unicode="&#xe923;" glyph-name="koopertion" d="M668.8 252.8l19.2-25.6c76.8 60.8 115.2 140.8 121.6 243.2l-32 3.2c-3.2-96-41.6-166.4-108.8-220.8zM243.2 470.4l-32-3.2c6.4-99.2 48-182.4 121.6-243.2l19.2 25.6c-64 57.6-102.4 128-108.8 220.8zM643.2 678.4l12.8 28.8c-92.8 41.6-182.4 44.8-272 6.4l12.8-28.8c83.2 32 163.2 32 246.4-6.4zM563.2 204.8c22.4 19.2 38.4 51.2 38.4 86.4 0 57.6-38.4 105.6-86.4 105.6s-86.4-48-86.4-105.6c0-35.2 16-67.2 38.4-86.4-64-3.2-102.4-22.4-112-60.8v-118.4h32v115.2c6.4 25.6 38.4 35.2 92.8 35.2h83.2c54.4 0 83.2-12.8 83.2-35.2v-115.2h32v115.2c-6.4 38.4-41.6 60.8-115.2 64zM512 361.6c28.8 0 54.4-32 54.4-73.6s-25.6-73.6-54.4-73.6c-28.8 0-54.4 32-54.4 73.6s25.6 73.6 54.4 73.6zM912 720c22.4 19.2 38.4 51.2 38.4 86.4 0 57.6-38.4 105.6-86.4 105.6s-86.4-48-86.4-105.6c0-35.2 16-67.2 38.4-86.4-64-3.2-102.4-22.4-112-60.8v-118.4h32v112c6.4 25.6 38.4 35.2 92.8 35.2h83.2c54.4 0 83.2-12.8 83.2-35.2v-115.2h32v118.4c-3.2 41.6-41.6 64-115.2 64zM864 880c28.8 0 54.4-32 54.4-73.6s-25.6-73.6-54.4-73.6-54.4 32-54.4 73.6 22.4 73.6 54.4 73.6zM288 656v-115.2h32v115.2c0 41.6-38.4 64-112 67.2 22.4 19.2 38.4 51.2 38.4 86.4 0 54.4-38.4 102.4-86.4 102.4s-86.4-48-86.4-105.6c0-35.2 16-67.2 38.4-86.4-64-3.2-102.4-22.4-112-60.8v-118.4h32v112c6.4 25.6 38.4 35.2 92.8 35.2h83.2c54.4 0 80-9.6 80-32zM160 880c28.8 0 54.4-32 54.4-73.6s-22.4-73.6-54.4-73.6-54.4 32-54.4 73.6 25.6 73.6 54.4 73.6z" />
<glyph unicode="&#xe924;" glyph-name="uebernahmechancen" d="M1011.2 662.4c-12.8 19.2-41.6 51.2-92.8 105.6-12.8 9.6-38.4 25.6-73.6 0-19.2-12.8-41.6-28.8-64-44.8s-51.2-16-86.4-6.4c-16 3.2-32 12.8-44.8 22.4-35.2 19.2-73.6 41.6-131.2 6.4-3.2-3.2-6.4-3.2-9.6-6.4-73.6 44.8-121.6 22.4-156.8 6.4-6.4-3.2-12.8-6.4-16-6.4-35.2-12.8-96-6.4-128 16-32 16-60.8 16-92.8-6.4-80-83.2-99.2-108.8-105.6-121.6-19.2-32-6.4-51.2 3.2-57.6l83.2-76.8-54.4-60.8c-12.8-12.8-19.2-32-19.2-51.2s9.6-38.4 22.4-51.2c12.8-9.6 25.6-16 41.6-19.2-16-28.8-12.8-64 12.8-89.6 12.8-12.8 32-19.2 51.2-19.2 9.6 0 19.2 3.2 28.8 6.4 3.2-16 9.6-32 22.4-44.8s32-19.2 51.2-19.2c0 0 3.2 0 3.2 0 12.8 0 25.6 6.4 38.4 12.8 3.2-16 9.6-28.8 22.4-41.6s32-19.2 51.2-19.2c19.2 0 38.4 6.4 54.4 22.4l25.6 25.6 57.6-51.2c12.8-12.8 28.8-19.2 48-19.2 3.2 0 3.2 0 6.4 0 19.2 0 38.4 9.6 51.2 25.6 9.6 12.8 16 25.6 16 38.4l19.2-16c12.8-12.8 28.8-19.2 48-19.2 3.2 0 3.2 0 6.4 0 19.2 0 38.4 9.6 51.2 25.6 9.6 12.8 16 28.8 16 44.8 9.6-3.2 16-3.2 25.6-3.2 19.2 0 41.6 9.6 54.4 25.6l6.4 6.4c12.8 16 19.2 32 19.2 54.4 0 6.4 0 9.6-3.2 16 0 0 0 0 0 0 19.2 0 38.4 9.6 51.2 25.6l6.4 6.4c25.6 28.8 22.4 76.8-6.4 102.4l-32 28.8 134.4 147.2 3.2 3.2c6.4 35.2-3.2 60.8-16 76.8zM51.2 384c0 9.6 3.2 22.4 9.6 28.8l96 105.6c6.4 6.4 16 12.8 28.8 12.8 0 0 0 0 0 0 9.6 0 19.2-3.2 28.8-9.6 16-16 16-38.4 3.2-57.6 0 0 0 0 0 0l-99.2-105.6c-6.4-6.4-16-12.8-25.6-12.8s-22.4 3.2-28.8 9.6c-6.4 6.4-12.8 16-12.8 28.8zM118.4 246.4c-16 16-16 41.6-3.2 57.6l25.6 28.8c0 0 3.2 0 3.2 3.2l96 105.6c0 0 0 0 0 3.2 9.6 9.6 19.2 12.8 28.8 12.8s19.2-3.2 28.8-9.6c6.4-6.4 12.8-16 12.8-28.8 0-9.6-3.2-22.4-9.6-28.8l-124.8-134.4c-12.8-25.6-38.4-25.6-57.6-9.6zM249.6 176c-12.8 0-22.4 3.2-28.8 9.6s-12.8 16-12.8 28.8c0 9.6 3.2 22.4 9.6 28.8l86.4 92.8c9.6 9.6 19.2 12.8 28.8 12.8s19.2-3.2 28.8-9.6c16-16 16-41.6 3.2-57.6l-86.4-92.8c-6.4-6.4-16-12.8-28.8-12.8zM390.4 140.8c-16-16-41.6-16-57.6-3.2-16 16-16 41.6-3.2 57.6l60.8 67.2c9.6 9.6 19.2 12.8 28.8 12.8s19.2-3.2 28.8-9.6c16-16 16-41.6 3.2-57.6l-60.8-67.2zM892.8 323.2l-6.4-6.4c-6.4-9.6-16-12.8-28.8-12.8-9.6 0-19.2 3.2-28.8 9.6l-131.2 115.2-22.4-25.6 131.2-112c0 0 0 0 3.2 0l6.4-6.4c9.6-6.4 12.8-16 12.8-28.8 0-9.6-3.2-22.4-9.6-28.8l-6.4-6.4c-16-16-41.6-19.2-57.6-3.2l-19.2 12.8c-3.2 3.2-3.2 3.2-6.4 6.4l-121.6 105.6-22.4-25.6 124.8-108.8c6.4-6.4 12.8-16 12.8-25.6s-3.2-22.4-9.6-28.8c-6.4-9.6-16-12.8-28.8-12.8-9.6 0-22.4 3.2-28.8 9.6l-128 108.8-22.4-25.6 60.8-54.4c16-16 19.2-41.6 3.2-57.6-6.4-9.6-16-12.8-28.8-12.8-9.6 0-22.4 3.2-28.8 9.6l-57.6 51.2 16 16c28.8 28.8 25.6 76.8-3.2 102.4v0c-16 16-41.6 22.4-64 19.2 0 22.4-6.4 41.6-22.4 57.6v0c-12.8 12.8-28.8 19.2-44.8 19.2 12.8 28.8 6.4 60.8-16 80-16 16-38.4 22.4-60.8 19.2 0 22.4-6.4 41.6-22.4 57.6-12.8 12.8-32 19.2-51.2 19.2s-38.4-9.6-51.2-22.4l-19.2-19.2-83.2 76.8c-3.2 3.2 3.2 16 3.2 19.2 6.4 9.6 28.8 38.4 99.2 112 16 12.8 32 12.8 51.2 0 41.6-28.8 115.2-35.2 156.8-19.2 6.4 3.2 12.8 6.4 19.2 9.6 32 16 64 28.8 115.2 3.2-28.8-19.2-38.4-28.8-44.8-35.2-9.6-12.8-16-22.4-19.2-32 0-12.8 3.2-25.6 16-41.6 22.4-25.6 54.4-25.6 80-3.2 41.6 25.6 76.8 25.6 108.8 0 28.8-22.4 265.6-227.2 265.6-227.2 22.4-12.8 22.4-38.4 9.6-57.6zM985.6 601.6l-134.4-147.2c-102.4 89.6-172.8 150.4-211.2 179.2-22.4 16-44.8 25.6-70.4 25.6s-51.2-9.6-76.8-25.6c-19.2-16-28.8-9.6-38.4 0s-9.6 16-9.6 16c0 3.2 3.2 6.4 6.4 6.4l3.2 3.2c6.4 6.4 25.6 22.4 80 57.6 38.4 25.6 64 12.8 96-6.4 16-9.6 32-19.2 54.4-25.6 44.8-9.6 83.2-6.4 115.2 16 22.4 16 44.8 32 64 44.8s28.8 6.4 35.2 3.2c48-51.2 76.8-86.4 89.6-102.4 3.2-9.6 6.4-22.4-3.2-44.8z" />
<glyph unicode="&#xe925;" glyph-name="spuerbar-nah" d="M595.2 368c9.6-6.4 19.2-9.6 28.8-9.6s22.4 3.2 28.8 9.6c25.6 22.4 48 41.6 70.4 57.6 41.6 35.2 76.8 64 105.6 92.8 57.6 54.4 108.8 115.2 108.8 201.6 0 108.8-80 192-179.2 192-54.4 0-99.2-22.4-134.4-67.2-35.2 44.8-80 67.2-134.4 67.2-102.4 0-179.2-83.2-179.2-192 0-54.4 19.2-102.4 64-156.8 38.4-41.6 195.2-176 220.8-195.2zM489.6 880c60.8 0 99.2-38.4 121.6-70.4l12.8-19.2 12.8 19.2c22.4 32 57.6 70.4 121.6 70.4 83.2 0 147.2-67.2 147.2-160 0-73.6-48-131.2-99.2-179.2-28.8-28.8-64-57.6-102.4-89.6-22.4-19.2-44.8-38.4-70.4-57.6-6.4-3.2-12.8-3.2-19.2 0-25.6 19.2-179.2 153.6-214.4 195.2-38.4 44.8-57.6 89.6-57.6 134.4 0 89.6 64 156.8 147.2 156.8zM1011.2 275.2c-25.6 41.6-80 57.6-121.6 35.2l-198.4-118.4c-3.2 22.4-12.8 41.6-25.6 54.4-35.2 35.2-99.2 32-150.4 32-35.2 0-73.6-3.2-86.4 9.6-144 121.6-230.4 60.8-272 28.8-6.4-3.2-12.8-9.6-16-9.6-22.4-12.8-64-22.4-121.6-25.6h-16v-272h240c112-19.2 208-28.8 288-28.8s144 9.6 192 32l262.4 150.4c19.2 12.8 35.2 32 41.6 54.4 0 16-3.2 38.4-16 57.6zM128 268.8v-230.4h-96v211.2c41.6 3.2 73.6 9.6 96 19.2zM988.8 217.6c-3.2-16-12.8-25.6-25.6-35.2l-224-128c-80-57.6-246.4-60.8-499.2-16h-80v246.4c3.2 3.2 6.4 6.4 12.8 9.6 38.4 28.8 105.6 80 233.6-28.8 22.4-19.2 64-19.2 108.8-16 48 3.2 102.4 3.2 128-22.4 12.8-9.6 16-28.8 19.2-48l-16-9.6h-240v-32h249.6l246.4 144 9.6 3.2c28.8 16 64 6.4 76.8-22.4 3.2-16 6.4-28.8 0-44.8z" />
<glyph unicode="&#xe926;" glyph-name="extras" d="M438.4 652.8h121.6c9.6 0 16 6.4 16 16s-6.4 16-16 16h-121.6c-9.6 0-16-6.4-16-16s6.4-16 16-16zM841.6 668.8c0-9.6 6.4-16 16-16h121.6c9.6 0 16 6.4 16 16s-6.4 16-16 16h-121.6c-9.6 0-16-6.4-16-16zM585.6 761.6c3.2-3.2 6.4-3.2 12.8-3.2s9.6 0 12.8 3.2c6.4 6.4 6.4 16 0 22.4l-86.4 86.4c-6.4 6.4-16 6.4-22.4 0s-6.4-16 0-22.4l83.2-86.4zM822.4 755.2c3.2 0 9.6 0 12.8 3.2l86.4 86.4c6.4 6.4 6.4 16 0 22.4s-16 6.4-22.4 0l-86.4-86.4c-6.4-6.4-6.4-16 0-22.4 0 0 3.2-3.2 9.6-3.2zM713.6 806.4c9.6 0 16 6.4 16 16v121.6c0 9.6-6.4 16-16 16s-16-6.4-16-16v-121.6c0-9.6 6.4-16 16-16zM1004.8 294.4c0 28.8-12.8 54.4-35.2 67.2 22.4 16 35.2 41.6 35.2 67.2 0 48-38.4 83.2-83.2 83.2h-179.2c19.2 32 35.2 64 38.4 147.2v0 35.2c0 38.4-32 70.4-70.4 70.4s-67.2-28.8-70.4-67.2v0c-6.4-140.8-86.4-211.2-294.4-262.4v3.2c0 41.6-35.2 76.8-76.8 76.8h-204.8c-25.6 0-48-22.4-48-48v-486.4c0-22.4 22.4-44.8 48-44.8h204.8c35.2 0 64 22.4 73.6 54.4 76.8-28.8 192-54.4 281.6-54.4 6.4 0 297.6 0 297.6 0 48 0 83.2 38.4 83.2 83.2 0 28.8-12.8 54.4-35.2 67.2 22.4 16 35.2 41.6 35.2 67.2 0 28.8-12.8 54.4-35.2 67.2 22.4 19.2 35.2 44.8 35.2 73.6zM313.6 12.8c0-25.6-19.2-44.8-44.8-44.8h-204.8c-6.4 0-16 6.4-16 16v486.4c0 6.4 6.4 16 16 16h204.8c25.6 0 44.8-19.2 44.8-44.8v-428.8zM921.6 243.2h-150.4c-9.6 0-16-6.4-16-16s6.4-16 16-16h150.4c28.8 0 51.2-22.4 51.2-51.2s-22.4-51.2-51.2-51.2h-185.6c-9.6 0-16-6.4-16-16s6.4-16 16-16h185.6c28.8 0 51.2-22.4 51.2-51.2s-22.4-57.6-51.2-57.6h-281.6c-96-3.2-227.2 28.8-297.6 54.4v380.8c195.2 44.8 316.8 112 326.4 288 0 0 0 3.2 0 3.2 0 22.4 16 38.4 38.4 38.4s38.4-16 38.4-38.4v-35.2c0 0 0 0 0 0-3.2-76.8-19.2-102.4-38.4-137.6l-3.2-6.4h-64c-9.6 0-16-6.4-16-16s6.4-16 16-16h281.6c28.8 0 51.2-22.4 51.2-51.2s-22.4-51.2-51.2-51.2h-121.6c-9.6 0-16-6.4-16-16s6.4-16 16-16h121.6c28.8 0 51.2-22.4 51.2-51.2s-22.4-54.4-51.2-54.4z" />
<glyph unicode="&#xe927;" glyph-name="soziales-engagement" d="M329.6 528c6.4 0 9.6 3.2 9.6 9.6v32c0 6.4-3.2 9.6-9.6 9.6s-9.6-3.2-9.6-9.6v-32c-3.2-3.2 3.2-9.6 9.6-9.6zM822.4 582.4c-6.4 0-9.6-3.2-9.6-9.6v-32c0-6.4 3.2-9.6 9.6-9.6s9.6 3.2 9.6 9.6v32c0 3.2-3.2 9.6-9.6 9.6zM182.4 582.4c-6.4 0-9.6-3.2-9.6-9.6v-32c0-6.4 3.2-9.6 9.6-9.6s9.6 3.2 9.6 9.6v32c0 3.2-3.2 9.6-9.6 9.6zM675.2 582.4c-6.4 0-9.6-3.2-9.6-9.6v-32c0-6.4 3.2-9.6 9.6-9.6s9.6 3.2 9.6 9.6v32c0 3.2-3.2 9.6-9.6 9.6zM265.6 451.2c0 0 0 0 0 0 22.4 0 41.6 9.6 54.4 25.6 6.4 6.4 3.2 16-3.2 22.4s-16 3.2-22.4-3.2c-6.4-9.6-16-12.8-32-12.8-6.4 0-19.2 3.2-28.8 12.8-6.4 6.4-16 9.6-22.4 3.2s-9.6-16-3.2-22.4c16-16 35.2-25.6 57.6-25.6zM784 499.2c-6.4-9.6-19.2-12.8-32-12.8-6.4 0-19.2 3.2-28.8 12.8-6.4 6.4-16 9.6-22.4 3.2s-9.6-16-3.2-22.4c12.8-16 32-25.6 54.4-25.6 0 0 0 0 0 0 22.4 0 41.6 9.6 54.4 25.6 6.4 6.4 3.2 16-3.2 22.4-3.2 3.2-12.8 3.2-19.2-3.2zM1024 217.6c-6.4 32-19.2 60.8-38.4 83.2v0 323.2c-12.8 160-102.4 246.4-246.4 246.4-112 0-188.8-83.2-227.2-243.2v-358.4c0-3.2-3.2-3.2-3.2-6.4-32 60.8-89.6 102.4-160 112 41.6 16 70.4 51.2 76.8 96 12.8 0 32 3.2 41.6 16 12.8 12.8 12.8 28.8 12.8 41.6 0 19.2-6.4 32-19.2 41.6 9.6 6.4 19.2 12.8 28.8 22.4 22.4 28.8 32 73.6 22.4 137.6-6.4 48-25.6 83.2-57.6 105.6-41.6 28.8-92.8 28.8-115.2 25.6-16 25.6-48 44.8-89.6 48-57.6 9.6-137.6-9.6-185.6-86.4s-54.4-166.4-19.2-265.6c-3.2-6.4-3.2-16-3.2-28.8 3.2-35.2 22.4-54.4 54.4-57.6 6.4-44.8 38.4-83.2 80-99.2-86.4-12.8-156.8-80-172.8-166.4v-3.2l3.2-233.6h995.2c16 0 25.6 12.8 25.6 25.6v217.6l-3.2 6.4zM278.4 342.4l-22.4-35.2-22.4 35.2h44.8zM444.8 508.8c-3.2-3.2-6.4-3.2-16-3.2v51.2c12.8-6.4 19.2-12.8 19.2-28.8 3.2-9.6 0-16-3.2-19.2zM89.6 803.2c41.6 64 105.6 80 156.8 73.6 35.2-3.2 60.8-19.2 67.2-38.4l3.2-12.8 12.8 3.2c0 0 60.8 12.8 102.4-19.2 25.6-16 38.4-44.8 44.8-83.2 6.4-51.2 3.2-89.6-16-112-9.6-9.6-19.2-19.2-35.2-22.4 0 0 0 0 0 0v12.8c0 6.4-3.2 9.6-6.4 12.8-35.2 28.8-86.4 76.8-105.6 99.2 0 3.2-6.4 6.4-9.6 6.4-6.4 0-16 0-19.2 0s-6.4-3.2-9.6-3.2c-38.4-35.2-96-70.4-172.8-96-6.4-3.2-9.6-9.6-9.6-16 0 0 0-3.2 0-3.2v-3.2c-6.4-3.2-16-9.6-22.4-12.8-28.8 76.8-19.2 150.4 19.2 214.4zM70.4 531.2c0 16 3.2 22.4 19.2 32v-57.6c-6.4 0-16 3.2-19.2 25.6zM124.8 486.4v108.8c73.6 28.8 128 60.8 169.6 96 22.4-28.8 70.4-70.4 102.4-96v-108.8c0-48-38.4-89.6-89.6-89.6h-96c-48 3.2-86.4 41.6-86.4 89.6zM496 3.2h-70.4v169.6h-32v-169.6h-262.4v166.4h-35.2v-166.4h-64v198.4c16 80 83.2 134.4 163.2 140.8l38.4-60.8c3.2-6.4 9.6-9.6 16-12.8 3.2 0 3.2 0 6.4 0 6.4 0 9.6 0 12.8 3.2s6.4 6.4 9.6 9.6l38.4 60.8h6.4c83.2 0 153.6-57.6 172.8-134.4v-204.8zM544 620.8c32 147.2 96 217.6 195.2 217.6 163.2 0 208-118.4 214.4-214.4v-288c-28.8 22.4-60.8 41.6-99.2 48 41.6 28.8 70.4 89.6 70.4 137.6v99.2c0 6.4-3.2 12.8-9.6 16-64 22.4-112 80-134.4 115.2-3.2 3.2-6.4 6.4-12.8 6.4h-22.4c-6.4 0-12.8-3.2-16-9.6-16-38.4-57.6-70.4-134.4-112-6.4-3.2-9.6-9.6-9.6-12.8v-102.4c0-44.8 28.8-108.8 73.6-137.6-44.8-9.6-86.4-32-115.2-67.2v304zM803.2 400h-96c-44.8 0-89.6 67.2-89.6 121.6v92.8c70.4 38.4 112 73.6 134.4 112h3.2c25.6-35.2 73.6-89.6 134.4-115.2v-89.6c3.2-54.4-41.6-121.6-86.4-121.6zM720 361.6l6.4 6.4h73.6l6.4-6.4c3.2-3.2 6.4-6.4 6.4-12.8 0-12.8-19.2-28.8-48-28.8s-48 16-48 28.8c-3.2 6.4 0 9.6 3.2 12.8zM886.4 86.4h-262.4v35.2h262.4v-35.2zM624 54.4h262.4v-48h-262.4v48zM988.8 3.2h-73.6v179.2h-32v-32h-262.4v32h-32v-179.2h-60.8v204.8c0 3.2 0 3.2 0 6.4v0c16 76.8 80 131.2 156.8 140.8 0 0 0-3.2 0-3.2 0-35.2 35.2-60.8 80-60.8s80 25.6 80 60.8c0 0 0 3.2 0 3.2 73.6-9.6 134.4-67.2 150.4-140.8l-6.4-211.2z" />
<glyph unicode="&#xe928;" glyph-name="contact" d="M979.2 928h-713.6c-25.6 0-44.8-19.2-44.8-41.6v-195.2l-32 48c-16 22.4-44.8 28.8-67.2 16l-67.2-41.6c-22.4-12.8-38.4-32-44.8-57.6-25.6-89.6-6.4-240 217.6-464 179.2-176 313.6-224 406.4-224 22.4 0 41.6 3.2 64 9.6 25.6 6.4 44.8 22.4 57.6 44.8l41.6 67.2c12.8 22.4 6.4 51.2-16 67.2l-160 105.6c-22.4 16-51.2 9.6-67.2-9.6l-48-60.8c-6.4-6.4-12.8-9.6-22.4-3.2l-9.6 6.4c-28.8 16-67.2 35.2-140.8 108.8-6.4 6.4-16 16-22.4 22.4h665.6c22.4 0 44.8 19.2 44.8 41.6v518.4c3.2 22.4-16 41.6-41.6 41.6zM457.6 160l9.6-3.2c22.4-12.8 48-6.4 64 12.8l48 60.8c6.4 6.4 16 9.6 22.4 3.2l160-105.6c6.4-6.4 9.6-16 6.4-22.4l-41.6-67.2c-9.6-12.8-22.4-25.6-38.4-28.8-80-22.4-220.8-3.2-435.2 208s-233.6 352-211.2 432c3.2 16 16 28.8 28.8 38.4l67.2 38.4c9.6 3.2 19.2 0 22.4-6.4l108.8-160c3.2-6.4 3.2-16-3.2-22.4l-60.8-44.8c-19.2-16-25.6-41.6-12.8-64l3.2-9.6c16-32 38.4-70.4 115.2-147.2 76.8-73.6 118.4-96 147.2-112zM988.8 361.6c0-6.4-3.2-9.6-9.6-9.6h-697.6c-22.4 25.6-41.6 51.2-57.6 83.2l-6.4 9.6c-3.2 6.4-3.2 16 3.2 19.2l64 48c22.4 16 25.6 44.8 9.6 67.2l-38.4 60.8v246.4c0 3.2 0 6.4 3.2 6.4s3.2 3.2 6.4 3.2h716.8c3.2 0 6.4 0 6.4-3.2s3.2-3.2 3.2-6.4v-524.8h-3.2zM924.8 854.4l-281.6-208c-9.6-6.4-19.2-6.4-25.6 0l-281.6 208c-6.4 6.4-19.2 3.2-22.4-3.2-9.6-9.6-9.6-19.2 0-25.6l281.6-208c19.2-16 48-16 67.2 0l281.6 208c3.2 3.2 6.4 6.4 6.4 9.6s0 9.6-3.2 12.8-16 9.6-22.4 6.4zM489.6 601.6l-182.4-182.4c-6.4-6.4-6.4-16 0-22.4s19.2-6.4 25.6 0l182.4 182.4c6.4 6.4 6.4 16 0 22.4s-16 6.4-25.6 0zM768 620.8c-6.4 6.4-19.2 6.4-25.6 0s-6.4-16 0-22.4l179.2-179.2c6.4-6.4 19.2-6.4 25.6 0s6.4 16 0 22.4l-179.2 179.2z" />
</font>
</defs>
</svg>
